St Trinians 2 The Legend of Frittons Gold BRRip H264 LKRG

seeders: 1
leechers: 1
Added on May 20, 2010 in Movies
Torrent verified. Downloaded 5 times.

Available in versions: 720pHDRiPDVDRip
St Trinians 2 The Legend of Frittons Gold BRRip H264 LKRG (Size: 2.6 GB)
  st.trinians.2.t.l.o.f.g.2010.lkrg.mp4 2.6 GB
  st.trinians.2.t.l.o.f.g.2010.lkrg.srt 112.6 KB

Description

Love for All and Sharing is the first step to solving all the problems of humanity.

Websites I want to share.


http://www.shareintl.org/


http://www.lightmiddleway.comThank you very much

No credit for me...credit to EVERYONE for sharing

http://thepiratebay.org/user/raymondhome/

PLOT
The girls of St. Trinians are on the hunt for buried treasure after discovering headmistress Miss Fritton is related to a famous pirate.

Format : MPEG-4
Duration : 1h 45mn
Overall bit rate : 3 539 Kbps

Video
ID : 1
Format : AVC
Format/Info : Advanced Video Codec
Format profile : High@L4.1
Format settings, CABAC : Yes
Format settings, ReFrames : 3 frames
Codec ID : avc1
Codec ID/Info : Advanced Video Coding
Duration : 1h 45mn
Bit rate mode : Variable
Bit rate : 2 959 Kbps
Maximum bit rate : 13.2 Mbps
Width : 1 264 pixels
Height : 528 pixels
Display aspect ratio : 2.35:1
Frame rate mode : Constant
Frame rate : 24.000 fps
Resolution : 24 bits
Colorimetry : 4:2:0
Scan type : Progressive
Bits/(Pixel*Frame) : 0.185
Stream size : 2.17 GiB (84%)

Audio #1
ID : 2
Format : AAC
Format/Info : Advanced Audio Codec
Format version : Version 4
Format profile : LC
Format settings, SBR : No
Codec ID : 40
Duration : 1h 45mn
Bit rate mode : Variable
Bit rate : 128 Kbps
Maximum bit rate : 136 Kbps
Channel(s) : 2 channels
Channel positions : L R
Sampling rate : 48.0 KHz
Resolution : 16 bits
Stream size : 96.3 MiB (4%)

Audio #2
ID : 3
Format : AAC
Format/Info : Advanced Audio Codec
Format version : Version 4
Format profile : LC
Format settings, SBR : No
Codec ID : 40
Duration : 1h 45mn
Bit rate mode : Variable
Bit rate : 448 Kbps
Maximum bit rate : 462 Kbps
Channel(s) : 6 channels
Channel positions : Front: L C R, Rear: L R, LFE
Sampling rate : 48.0 KHz
Resolution : 16 bits
Stream size : 337 MiB (13%)

Language : English

credit Wrath BIG BIG BIG TIME & to all the people who made it possible for us to share this...especially EVERYONE involve in the production of the movie...IF YOU LIKE IT...BUY IT :)

*****help what we can with others in need...the world is ONE big family*****

Related Torrents

torrent name size files age seed leech

Sharing Widget


Download torrent
2.6 GB
seeders:1
leechers:1
St Trinians 2 The Legend of Frittons Gold BRRip H264 LKRG

Trackers

tracker name Status checked seeders leechers downloads
udp://tracker.openbittorrent.com:80/announce
outdated 20 Oct 2013 - - -
udp://tracker.torrentbox.com:2710/announce
outdated 20 Oct 2013 - - -
udp://tracker.publicbt.com:80/announce
outdated 20 Oct 2013 - - -
http://genesis.1337x.org:1337/announce
outdated 13 Jul 2011 - - -
http://exodus.1337x.org/announce
outdated 13 Jul 2011 - - -
http://nemesis.1337x.org/announce
outdated 13 Jul 2011 - - -
http://bt1.the9.com:6969/announce
outdated 16 Nov 2010 - - -
http://tracker.openbittorrent.com/announce
outdated 20 May 2010 - - -
http://tracker.publicbt.com/announce
deleted 11 Mar 2013 - - -
http://tracker.torrentbox.com:2710/announce
error 25 Sep 2010 - - -
http://9.rarbg.com:2710/announce
private 20 May 2010 - - -
http://tracker.mightynova.com/announce
error 20 May 2010 - - -
http://www.torrentsnipe.info:2701/announce
error 20 May 2010 - - -
ĀµTorrent compatible trackers list

Locations

name
ThePirateBay
1337x
ThePirateBay
Torrent hash: 10e112a1222a416e6e7586908942fcecea5931fc

All Comments

audio
10/10
video
10/10
please, leave only comments related to that torrent
or sign-in
0
harveyvirk207 • 01 March 2011, 14:02
torrent downloaded
Show comment
audio: 10video: 10

User Opinions

Report a bug