Smallville S10E18 720p HDTV_JHW.mp4

seeders: 13
leechers: 1
Added on Apr 23, 2011 by jameshotwire553 in TV
Torrent verified. Downloaded 3,434 times.

  • View all Smallville episodes
  • Episode title: Booster
  • Episode: S10E18
  • Air date: 22 April 2011
  • Original run: 16 October 2001 — 13 May 2011
  • Summary:
    A young Clark Kent struggles to find his place in the world as he learns to harness his alien powers for good and deals with the typical troubles of teenage life in Smallville.
    Submitted by Dr.YeTii266.38K
    report summary
Smallville S10E18 720p HDTV_JHW.mp4 (Size: 386.59 MB)
  Smallville S10E18 720p HDTV_JHW.mp4 386.59 MB

Description

Booster (#10.18) Aired 4/22/2011

After everything that happened with the VRA, Lois tells Clark it's best to make "Clark Kent" forgettable and awkward so people don't suspect he's The Blur. However, the two are stunned when a fame-hungry superhero from the future, Booster Gold, sweeps into town and begins making saves and posing for press ops, completely winning over the city of Metropolis. Booster begins his campaign to take The Blur's place as the "World's Greatest Superhero" and tries to charm Lois into writing a story about him, but she's not having his antics and begins her own campaign for The Blur. During one of Booster's saves, an alien weapon in the form of a scarab falls from a truck and fuses itself to a boy named Jaime Reyes, turning him into the Blue Beetle. Unfortunately, Jaime is unable to control the suit and Blue Beetle starts attacking Metropolis

General
Complete name : Smallville S10E18 720p HDTV_JHW.mp4
Format : MPEG-4
Format profile : Base Media / Version 2
Codec ID : mp42
File size : 387 MiB
Duration : 41mn 39s
Overall bit rate : 1 297 Kbps
Encoded date : UTC 2011-04-22 02:40:35
Tagged date : UTC 2011-04-22 02:40:35
Writing library : AVS

Video
ID : 1
Format : AVC
Format/Info : Advanced Video Codec
Format profile : Main@L5.1
Format settings, CABAC : Yes
Format settings, ReFrames : 2 frames
Codec ID : avc1
Codec ID/Info : Advanced Video Coding
Duration : 41mn 39s
Bit rate mode : Variable
Bit rate : 1 180 Kbps
Width : 1 280 pixels
Height : 720 pixels
Display aspect ratio : 16:9
Frame rate mode : Constant
Frame rate : 29.970 fps
Color space : YUV
Chroma subsampling : 4:2:0
Bit depth : 8 bits
Scan type : Progressive
Bits/(Pixel*Frame) : 0.043
Stream size : 352 MiB (91%)
Language : English
Encoded date : UTC 2011-04-22 02:40:35
Tagged date : UTC 2011-04-22 02:40:35

Audio
ID : 2
Format : AAC
Format/Info : Advanced Audio Codec
Format profile : LC
Codec ID : 40
Duration : 41mn 39s
Bit rate mode : Constant
Bit rate : 108 Kbps
Nominal bit rate : 96.0 Kbps
Channel(s) : 2 channels
Channel positions : Front: L R
Sampling rate : 48.0 KHz
Compression mode : Lossy
Stream size : 32.3 MiB (8%)
Language : English
Encoded date : UTC 2011-04-22 02:40:35
Tagged date : UTC 2011-04-22 02:40:35

image
image
image
image
image
image

Related Torrents

torrent name size files age seed leech

Sharing Widget


Download torrent
386.59 MB
seeders:13
leechers:1
Smallville S10E18 720p HDTV_JHW.mp4

Trackers

tracker name Status checked seeders leechers downloads
http://10.rarbg.com/announce
private 09 May 2012 - - -
http://pow7.com/announce
outdated 09 May 2012 - - -
udp://tracker.openbittorrent.com:80/announce
outdated 22 Apr 2012 - - -
http://tracker.openbittorrent.com/announce
outdated 22 Apr 2012 - - -
udp://tracker.publicbt.com:80/announce
outdated 22 Apr 2012 - - -
http://exodus.1337x.org/announce
outdated 22 Apr 2012 - - -
http://genesis.1337x.org:1337/announce
outdated 22 Apr 2012 - - -
http://nemesis.1337x.org/announce
outdated 22 Apr 2012 - - -
http://tracker.publicbt.com/announce
deleted 22 Apr 2012 - - -
µTorrent compatible trackers list

Locations

name
KickassTorrents
ThePirateBay
1337x
Torrent hash: 8124EAD7DFAA940BEFC216D3974F034B3830B4E4

All Comments

audio
9/10
video
9/10
please, leave only comments related to that torrent
or sign-in
0
Superman0411120 • 14 May 2011, 05:16
torrent downloaded
Show comment
audio: 10video: 10
Great Series!
0
iluvtoshare723 • 07 May 2011, 05:53
torrent downloaded
Show comment
audio: 8video: 9
thnks
0
skotbites5 • 04 May 2011, 09:40
torrent downloaded
Show comment
audio: 10video: 10
0
stevennick290 • 30 April 2011, 09:19
torrent downloaded
Show comment
audio: 10video: 10
0
darrenchance35 • 29 April 2011, 17:45
torrent downloaded
Show comment
audio: 8video: 8
ok skipped some frames but still watchable
0
Nemesis43383.18K • 29 April 2011, 17:27
torrent downloaded
Show comment
audio: 9video: 9
0
gil906208 • 28 April 2011, 02:50
torrent downloaded
Show comment
audio: 8video: 8
0
jingbong561 • 26 April 2011, 02:47
torrent downloaded
Show comment
audio: 9video: 9
0
FritzDaKat331 • 24 April 2011, 15:46
torrent downloaded
Show comment
audio: 10video: 10
0
ebookmaniac117 • 24 April 2011, 15:45
torrent downloaded
Show comment
audio: 9video: 9
Show More

User Opinions

Stoned623484, masterranger1212, chainmanslb967, scottcrawler754, iluvtoshare723, FritzDaKat331, stevennick290, adzcqe240, gil906208, djnova69 ... And 13 more
Report a bug