Skyfall 2012 1080p HD TS NEW XVID-26K

seeders: 395
leechers: 102
Added on Dec 13, 2012 by hail_alpha65751 in Movies > Highres Movies
Torrent verified. Downloaded 60 times.

Skyfall 2012 1080p HD TS NEW XVID-26K (Size: 4.25 GB)
  26k NFO.NFO 10.58 KB
  Meggafast.com.txt 124 bytes
  Sample1.avi 34.48 MB
  Sample2.avi 48.9 MB
  Sceneunderground.org.txt 77 bytes
  Skyfall.2012.1080p.HD.TS.NEW.XVID-26K.avi 4.17 GB
  Torrent downloaded from rarbg.com.txt.txt 0 bytes
  YouTube Latest Releases And Archive.txt 86 bytes

Description

image



Skyfall.2012.1080p.HD.TS.NEW.XVID-26K

http://www.imdb.com/title/tt1074638/

Plot:

Bond's loyalty to M is tested as her past comes back to haunt her, bringing MI6 under attack.

Sources - VIDEO: 1080 file ..... thanks .... :P
 AUDIO: CAM/LiNE combo ..... thanks .... :p
 
Video
ID : 0
Format : MPEG-4 Visual
Format profile : Advanced Simple@L5
Format settings, BVOP : 2
Format settings, QPel : No
Format settings, GMC : No warppoints
Format settings, Matrix : Default (H.263)
Muxing mode : Packed bitstream
Codec ID : XVID
Codec ID/Hint : XviD
Duration : 2h 18mn
Bit rate : 3 998 Kbps
Width : 1 920 pixels
Height : 1 080 pixels
Display aspect ratio : 16:9
Frame rate : 29.970 fps
Color space : YUV
Chroma subsampling : 4:2:0
Bit depth : 8 bits
Scan type : Progressive
Compression mode : Lossy
Bits/(Pixel*Frame) : 0.064
Stream size : 3.86 GiB (92%)
Writing library : XviD 64

Audio
ID : 1
Format : MPEG Audio
Format version : Version 1
Format profile : Layer 3
Mode : Joint stereo
Codec ID : 55
Codec ID/Hint : MP3
Duration : 2h 18mn
Bit rate mode : Constant
Bit rate : 320 Kbps
Channel(s) : 2 channels
Sampling rate : 44.1 KHz
Compression mode : Lossy
Delay relative to video : 3ms
Stream size : 316 MiB (7%)
Alignment : Split accross interleaves
Interleave, duration : 6551 ms (196.33 video frames)


Notes -

K 1st off get it straight this is not same source used by INSPiRAL and others for the HDTS .. this is new source
check runtime and fps.. get it right people b4 u start running ur chops... 

k source is over cropped on sides for reasons.. took sum of the slight flicker out and then jsut few 
minor tweaks to vid....then jsut muxed the 
CAM/LiNE audio combo from our other rls to it.. and its only CAM audio for under 30 sec the whole movie a
s we didnt have access to the FULL LiNE for it since we had full vid :)

enjoy :)



Screens:
image
image
image
image
image
image
image
image
image
image
image
image


Greetz:
XtremeEncode|CM8|RX|VISION|HDSCENE|xTriLL|ADTRG|CRYS|REMIXHD|HS|Tommiecook
BIDA|RX|REFILL|INSPiRAL|AXED|HOPE|Anonymous|GooN|NOIR|Blackjesus|Gabroo Punjab Deh
|UNiQUE|RESiSTANCE|HS|LEGION

To all the people who have helped me, you know who you are

Anything to offer email us @: 26k@hushmail.me

Related Torrents

torrent name size files age seed leech

Sharing Widget


Download torrent
4.25 GB
seeders:395
leechers:102
Skyfall 2012 1080p HD TS NEW XVID-26K

Trackers

tracker name Status checked seeders leechers downloads
udp://tracker.openbittorrent.com:80/announce
outdated 12 May 2013 - - -
udp://tracker.publicbt.com:80/announce
outdated 12 May 2013 - - -
udp://tracker.istole.it:80/announce
outdated 12 May 2013 - - -
udp://fr33domtracker.h33t.com:3310/announce
deleted 12 May 2013 - - -
udp://www.mp4mkv.org:2710/announce
pending 12 May 2013 0 0 0
udp://bt2.careland.com.cn:6969/announce
pending 12 May 2013 0 0 0
http://bt2.careland.com.cn:6969/announce
pending 12 May 2013 0 0 0
http://www.mp4mkv.org:2710/announce
pending 12 May 2013 0 0 0
udp://bttrack.9you.com:80/:8080/announce
pending 12 May 2013 0 0 0
http://bttrack.9you.com/:8080/announce
pending 12 May 2013 40 45 60
ĀµTorrent compatible trackers list

Locations

name author
KickassTorrents hail_alpha
Torrent hash: 5D9ECF64B75A7AA0A6288027EE5469BA320CBB66

All Comments

audio
3/10
video
2/10
please, leave only comments related to that torrent
or sign-in
0
DexzAery11197 • 13 August 2013, 12:47
torrent downloaded
Show comment
audio: 4video: 5
0
majesticmani80 • 10 February 2013, 00:48
torrent downloaded
Show comment
audio: 3video: 3
Poor video quality.
0
anonymous • 30 January 2013, 19:13 Show comment
audio: 1video: 1
0
abstergo78677 • 28 January 2013, 23:55 Show comment
audio: 3video: 3
0
anonymous • 18 January 2013, 22:41 Show comment
woop
0
anonymous • 18 January 2013, 20:34 Show comment
cam scam damn
0
anonymous • 18 January 2013, 16:14 Show comment
audio: 2video: 2
Show More

User Opinions

andre_madureira1757, Sheribo1455, Anfield42201342, joopkl671335, suchie4life867, deano1811692, stefanos1987570, stswiz554, timfs.smile369, scudder9 ... And 84 more
pepsiking2580, Derek4Real2128, RagingBull2024, smallfry221402, sOuL rEapER 131103, Earl_D973, filesh861, superz3161981792, majesticmani80, Plater11 ... And 60 more
Report a bug