Six Nations 2014 Rugby Union-France v England-2014 02 01 hdtv x2

seeders: 0
leechers: 1
Added on Feb 2, 2014 in TV
Torrent verified. Downloaded 0 times.

Six Nations 2014 Rugby Union-France v England-2014 02 01 hdtv x2 (Size: 1.46 GB)
  2014.02.01.6N.France.v.England.hdtv.x264.mp4 1.46 GB
  2014.02.01.6N.France.v.England.hdtv.x264.nfo 3.95 KB

Description

SPORT: Six Nations Rugby Union - France v England.
On: BBC 1 HD
Date: Saturday 1st February 2014
Time: 16:30 to 18:55

John Inverdale and studio guests Sir Clive Woodward, Jeremy Guscott and Thomas Castaignede are at the Stade de France as France and England get their 2014 Six Nations tournaments underway. Both countries suffered disappointment in 2013; England's 30-3 record defeat to Wales on the final weekend saw them not only miss out on the Six Nations title but also the Grand Slam. France began the 2013 competition as tournament favourites but ended it with the wooden spoon, their first since 1969. England have a good recent record against Les Blues, winning six of their last eight meetings, including three of their last four at the Stade de France. Eddie Butler and Brian Moore provide the commentary.

Full coverage


General
Complete name : 2014.02.01.6N.France.v.England.hdtv.x264.mp4
Format : MPEG-4
Format profile : Base Media
File size : 1.46 GiB
Duration : 2h 25mn
Overall bit rate mode : Variable
Overall bit rate : 1 430 Kbps

Video
ID : 1
Format : AVC
Format/Info : Advanced Video Codec
Format profile : High@L3.0
Format settings, CABAC : Yes
Format settings, ReFrames : 5 frames
Codec ID : avc1
Codec ID/Info : Advanced Video Coding
Duration : 2h 25mn
Bit rate : 1 300 Kbps
Maximum bit rate : 5 850 Kbps
Width : 704 pixels
Height : 400 pixels
Display aspect ratio : 16:9
Frame rate mode : Constant
Frame rate : 25.000 fps
Color space : YUV
Chroma subsampling : 4:2:0
Bit depth : 8 bits
Scan type : Progressive
Bits/(Pixel*Frame) : 0.185
Stream size : 1.32 GiB (91%)
Writing library : x264 core 138 r2358 9e941d1
Encoding settings : cabac=1 / ref=5 / deblock=1:0:0 / analyse=0x3:0x113 / me=umh / subme=8 / psy=1 / psy_rd=1.00:0.00 / mixed_ref=1 / me_range=16 / chroma_me=1 / trellis=1 / 8x8dct=1 / cqm=0 / deadzone=21,11 / fast_pskip=1 / chroma_qp_offset=-2 / threads=6 / lookahead_threads=1 / sliced_threads=0 / nr=0 / decimate=1 / interlaced=0 / bluray_compat=0 / constrained_intra=0 / bframes=3 / b_pyramid=2 / b_adapt=2 / b_bias=0 / direct=3 / weightb=1 / open_gop=0 / weightp=2 / keyint=250 / keyint_min=25 / scenecut=40 / intra_refresh=0 / rc_lookahead=50 / rc=abr / mbtree=1 / bitrate=1300 / ratetol=1.0 / qcomp=0.60 / qpmin=0 / qpmax=69 / qpstep=4 / ip_ratio=1.40 / aq=1:1.00

Audio
ID : 2
Format : AAC
Format/Info : Advanced Audio Codec
Format profile : LC
Codec ID : 40
Duration : 2h 25mn
Bit rate mode : Variable
Bit rate : 128 Kbps
Maximum bit rate : 133 Kbps
Channel(s) : 2 channels
Channel positions : Front: L R
Sampling rate : 48.0 KHz
Compression mode : Lossy
Stream size : 133 MiB (9%)
Language : English

Related Torrents

torrent name size files age seed leech

Sharing Widget


Download torrent
1.46 GB
seeders:0
leechers:1
Six Nations 2014 Rugby Union-France v England-2014 02 01 hdtv x2

Trackers

tracker name Status checked seeders leechers downloads
http://announce.torrentsmd.com:8080/announce.php
private 02 Feb 2014 - - -
udp://tracker.openbittorrent.com:80/announce
outdated 02 Feb 2014 - - -
udp://tracker.publicbt.com:80/announce
outdated 02 Feb 2014 - - -
udp://tracker.istole.it:80/announce
outdated 02 Feb 2014 - - -
http://announce.torrentsmd.com:6969/announce
outdated 02 Feb 2014 - - -
http://announce.torrentsmd.com:8080/announce
outdated 02 Feb 2014 - - -
http://shadowshq.yi.org:6969/announce
error 02 Feb 2014 - - -
http://leopard.raws.ws:6969/announce
pending 02 Feb 2014 0 0 0
ĀµTorrent compatible trackers list

Locations

name
ThePirateBay
Torrent hash: 86D04AC61AEC8F000659BEB009FDC38E05D3E6E7

All Comments

audio
10/10
video
10/10
please, leave only comments related to that torrent
or sign-in
0
anonymous • 03 February 2014, 16:33 Show comment
thank you indeed really
0
anonymous • 03 February 2014, 01:42 Show comment
Thank you very much! Looking forward to watching this. I'm hoping that the other game will also appear here later on. Cheers!
0
anonymous • 02 February 2014, 18:49 Show comment
audio: 10video: 10
Thank you kindly.
0
anonymous • 02 February 2014, 18:35 Show comment
Assuming this works, THANK YOU. It was an incredible game. Just a shame about the score...

User Opinions

Nautiloid1563, makdub181
Report a bug