Sin City [2005] Theatrical Cut BRRip XviD - CODY

seeders: 2
leechers: 1
Added on May 13, 2012 in Movies
Torrent verified. Downloaded 10 times.

Available in versions: 1080p720pBlu-RayBDRipHDRiPDVDDVDRip
Sin City [2005] Theatrical Cut BRRip XviD - CODY (Size: 1.01 GB)
  Cover.jpg 154.28 KB
  Info_by_Cody.txt 5.5 KB
  Sin City [2005] Theatrical Cut BRRip XviD - CODY.avi 1 GB
  Sin City [2005] Theatrical Cut BRRip XviD - CODY.Bulgarian.srt 155.14 KB
  Sin City [2005] Theatrical Cut BRRip XviD - CODY.Chinese.srt 119.96 KB
  Sin City [2005] Theatrical Cut BRRip XviD - CODY.Czech.srt 124.61 KB
  Sin City [2005] Theatrical Cut BRRip XviD - CODY.Dutch.srt 141.14 KB
  Sin City [2005] Theatrical Cut BRRip XviD - CODY.English.srt 127.17 KB
  Sin City [2005] Theatrical Cut BRRip XviD - CODY.English_HearingImpaired.srt 132.5 KB
  Sin City [2005] Theatrical Cut BRRip XviD - CODY.Finish.srt 120.84 KB
  Sin City [2005] Theatrical Cut BRRip XviD - CODY.French.srt 124.33 KB
  Sin City [2005] Theatrical Cut BRRip XviD - CODY.German.srt 129.61 KB
  Sin City [2005] Theatrical Cut BRRip XviD - CODY.Greek.srt 174.19 KB
  Sin City [2005] Theatrical Cut BRRip XviD - CODY.Hungarian.srt 107.89 KB
  Sin City [2005] Theatrical Cut BRRip XviD - CODY.Norwegian.srt 106.55 KB
  Sin City [2005] Theatrical Cut BRRip XviD - CODY.Polish.srt 134.64 KB
  Sin City [2005] Theatrical Cut BRRip XviD - CODY.Portuguese-Brazilian.srt 147.87 KB
  Sin City [2005] Theatrical Cut BRRip XviD - CODY.Portuguese-Portugal.srt 122.45 KB
  Sin City [2005] Theatrical Cut BRRip XviD - CODY.Slovenian.srt 124.58 KB
  Sin City [2005] Theatrical Cut BRRip XviD - CODY.Spanish.srt 128.63 KB
  Sin City [2005] Theatrical Cut BRRip XviD - CODY.srt 118.96 KB
  Sin City [2005] Theatrical Cut BRRip XviD - CODY.Turkish.srt 128.03 KB
  Sin City [2005] Theatrical Cut BRRip XviD - CODY.Vietnamese.srt 142.74 KB
  Torrent downloaded from Demonoid.me.txt 46 bytes

Description

General
Complete name : Sin City [2005] Theatrical Cut BRRip XviD - CODY.avi
Format : AVI
Format/Info : Audio Video Interleave
File size : 1.00 GiB
Duration : 2h 4mn
Overall bit rate : 1 157 Kbps
Writing application : VirtualDubMod 1.5.10.3 | www.virtualdub-fr.org || (build 2550/release)
Writing library : VirtualDubMod build 2550/release

Video
ID : 0
Format : MPEG-4 Visual
Format profile : Advanced Simple@L5
Format settings, BVOP : 4
Format settings, QPel : No
Format settings, GMC : No warppoints
Format settings, Matrix : Default (H.263)
Codec ID : XVID
Codec ID/Hint : XviD
Duration : 2h 4mn
Bit rate : 1 020 Kbps
Width : 720 pixels
Height : 392 pixels
Display aspect ratio : 16:9
Frame rate : 23.976 fps
Color space : YUV
Chroma subsampling : 4:2:0
Bit depth : 8 bits
Scan type : Progressive
Compression mode : Lossy
Bits/(Pixel*Frame) : 0.151
Stream size : 905 MiB (88%)
Writing library : XviD 1.2.1 (UTC 2008-12-04)

Audio
ID : 1
Format : MPEG Audio
Format version : Version 1
Format profile : Layer 3
Codec ID : 55
Codec ID/Hint : MP3
Duration : 2h 4mn
Bit rate mode : Constant
Bit rate : 128 Kbps
Channel(s) : 2 channels
Sampling rate : 48.0 KHz
Compression mode : Lossy
Stream size : 114 MiB (11%)
Alignment : Aligned on interleaves
Interleave, duration : 42 ms (1.00 video frame)
Interleave, preload duration : 504 ms
Writing library : L3.99r
Encoding settings : -m s -V 4 -q 2 -lowpass 17 -b 128


IMDB link: http://www.imdb.com/title/tt0401792/


Subtittles included: Bulgarian, Chinese, Czech, Dutch, English, English for Hearing Impaired, Finnish, French, German, Greek, Hungarian, Norwegian, Polish, Portuguese-Brazilian, Portuguese-Portugal, Romanian, Slovenian, Spanish, Turkish, Vietnamese


Please seed at least 1,5:1 . This way this torrent has a chance to survive !!


Thanks . Enjoy !!

Related Torrents

torrent name size files age seed leech

Sharing Widget


Download torrent
1.01 GB
seeders:2
leechers:1
Sin City [2005] Theatrical Cut BRRip XviD - CODY

Trackers

tracker name Status checked seeders leechers downloads
udp://tracker.istole.it:80/announce
outdated 09 Sep 2013 - - -
http://bt.firebit.org:2710/announce
outdated 09 Sep 2013 - - -
http://inferno.demonoid.me:3389/announce
outdated 09 Sep 2013 - - -
http://10.rarbg.com/announce
private 09 Sep 2013 - - -
udp://tracker.openbittorrent.com:80/announce
outdated 09 Sep 2013 - - -
http://t1.pow7.com/announce
outdated 09 Sep 2013 - - -
udp://tracker.publicbt.com:80/announce
outdated 09 Sep 2013 - - -
http://genesis.1337x.org:1337/announce
outdated 09 Sep 2013 - - -
http://nemesis.1337x.org/announce
outdated 09 Sep 2013 - - -
udp://fr33domtracker.h33t.com:3310/announce
deleted 09 Sep 2013 - - -
µTorrent compatible trackers list

Locations

name
ThePirateBay
Torrent hash: C75DCE44777D2EF84E386D9757CF316E5EFDBAA0

All Comments

audio
0/10
video
0/10
please, leave only comments related to that torrent
or sign-in

User Opinions

Report a bug