Silent Hill Revelations 2012 WEBRip x264 AC3-JDocsis3 (SilverTorrent)

seeders: 18
leechers: 10
Added on Jan 21, 2013 by srkfan34.71K in Movies
Torrent verified. Downloaded 364 times.

Silent Hill Revelations 2012 WEBRip x264 AC3-JDocsis3 (SilverTorrent) (Size: 1.2 GB)
  STPicz.com Free Image Hosting.txt 29 bytes
  (SilverTorrent.org) Silent.Hill.Revelations.2012.WEBRip.x264.AC3-JDocsis3.mkv 1.2 GB

Description

image
image
General
Silent Hill Revelations 2012 WEBRip x264 AC3-JDocsis3 (SilverTorrent)
Format : Matroska
Format version : Version 2
File size : 1.20 GiB
Duration : 1h 29mn
Overall bit rate : 1 913 Kbps
Encoded date : UTC 2013-01-20 22:49:38
Writing library : libebml v1.2.3 + libmatroska v1.3.0


Video
ID : 1
Format : AVC
Format/Info : Advanced Video Codec
Format profile : High@L4.1
Format settings, CABAC : Yes
Format settings, ReFrames : 5 frames
Codec ID : V_MPEG4/ISO/AVC
Duration : 1h 29mn
Bit rate : 1 720 Kbps
Width : 720 pixels
Height : 296 pixels
Display aspect ratio : 2.40:1
Frame rate mode : Constant
Frame rate : 23.976 fps
Color space : YUV
Chroma subsampling : 4:2:0
Bit depth : 8 bits
Scan type : Progressive
Bits/(Pixel*Frame) : 0.337
Stream size : 1.05 GiB (88%)
Default : Yes
Forced : No



Audio
ID : 2
Format : AC-3
Format/Info : Audio Coding 3
Mode extension : CM (complete main)
Format settings, Endianness : Big
Codec ID : A_AC3
Duration : 1h 29mn
Bit rate mode : Constant
Bit rate : 192 Kbps
Channel(s) : 2 channels
Channel positions : Front: L R
Sampling rate : 44.1 KHz
Bit depth : 16 bits
Compression mode : Lossy
Stream size : 123 MiB (10%)
Default : Yes
Forced : No


IMDb: http://www.imdb.com/title/tt0938330/



Heather Mason and her father have been on the run, always one step ahead of dangerous forces that she doesn't fully understand, Now on the eve of her 18th birthday, plagued by horrific nightmares and the disappearance of her father, Heather discovers she's not who she thinks she is. The revelation leads her deeper into a demonic world that threatens to trap her forever.



image
image
image
image

Sharing Widget


Download torrent
1.2 GB
seeders:18
leechers:10
Silent Hill Revelations 2012 WEBRip x264 AC3-JDocsis3 (SilverTorrent)

Trackers

tracker name Status checked seeders leechers downloads
udp://9.rarbg.com:2710/announce
outdated 01 Jan 2014 - - -
http://tracker.ex.ua/announce
outdated 01 Jan 2014 - - -
udp://tracker.openbittorrent.com:80/announce
outdated 01 Jan 2014 - - -
udp://tracker.publicbt.com:80/announce
outdated 01 Jan 2014 - - -
udp://tracker.istole.it:80/announce
outdated 01 Feb 2013 - - -
http://exodus.desync.com/announce
blocked 01 Feb 2013 - - -
http://exodus.desync.com:6969/announce
blocked 01 Feb 2013 - - -
http://tracker.coppersurfer.tk:6969/announce
deleted 01 Jan 2014 - - -
udp://fr33domtracker.h33t.com:3310/announce
deleted 01 Feb 2013 - - -
http://coppersurfer.tk:6969/announce
pending 01 Jan 2014 18 10 195
µTorrent compatible trackers list

Locations

name
KickassTorrents
Torrent hash: F01626D6AD8C2AF44F8FE49CFDDE44E8FC22E8E4

All Comments

audio
7/10
video
7/10
please, leave only comments related to that torrent
or sign-in
0
IRobke3243 • 24 December 2013, 08:08
torrent downloaded
Show comment
audio: 8video: 8
Thank You!!!biggrin
0
ozzy1351619 • 16 December 2013, 02:11
torrent downloaded
Show comment
audio: 8video: 8
Thank you!
0
anonymous • 13 May 2013, 02:48 Show comment
audio: 1video: 1
its MKV its bad quality to begin with , AVI use half the space as an MKV file andis also playable on EVERYTING where MKV cant be played on ANYTING cept VLC player on PC
0
bigkevtintin45 • 29 January 2013, 09:19
torrent downloaded
Show comment
good quality jumpy in parts but not a problem got the feel of the game totally average plot but worth a watch
0
robertswi163 • 28 January 2013, 11:44
torrent downloaded
Show comment
audio: 8video: 8
1
Fredowix78 • 26 January 2013, 05:30
torrent downloaded
Show comment
thank u
1
Fredowix78 • 26 January 2013, 05:30
torrent downloaded
Show comment
thank u
1
Fredowix78 • 26 January 2013, 05:29
torrent downloaded
Show comment
thank u
0
Fredowix78 • 26 January 2013, 05:29
torrent downloaded
Show comment
audio: 7video: 7
thank u
Show More

User Opinions

MyVidsRocK11.82K, rayron4796, IRobke3243, Scarletspider3129, D7S1732, ЯR_croscenstar1176, ARMS_DEALER1117, milios17905, true1993254, Unidentify189 ... And 97 more
Pyro078239, auralplanet1345, 12music1290, lerrad1055, nikozzz915, vanongail416, Plaznov232, onixslim98, iLcHama19, wannabegt44 ... And 1 more
Report a bug