Shelter (2010) (1080P.X264)(5.1 DTS-5.1 DD)(ENG NL SUBS)2Lions-Team

seeders: 0
leechers: 3
Added on Aug 6, 2010 by 2Lions-Team3786 in Movies
Downloaded 4 times.

Available in versions: 1080p720pBDRipHDRiPDVDDVDRipiPhone
Shelter (2010) (1080P.X264)(5.1 DTS-5.1 DD)(ENG NL SUBS)2Lions-Team (Size: 8.43 GB)
  MOVIE
  Flyer 2Lions.png 583.88 KB
  Film-Terminal-Flyer.jpg 75.87 KB
  Poster.jpg 65.28 KB
  Read.Me.1st.[Movie-Torrentz].txt 2.2 KB
  Shelter (2010) (1080P.X264)(5.1 DTS-5.1 DD) Pioen 2Lions-Team.txt 1.92 KB
  Torrents aan geboden door _2lions-site.nl.txt 894 bytes
  Torrent_downloaded_from_AhaShare.com.txt 611 bytes
  Torrent_downloaded_from_Demonoid.com.txt 601 bytes

Related Torrents

torrent name size files age seed leech

Sharing Widget


Download torrent
8.43 GB
seeders:0
leechers:3
Shelter (2010) (1080P.X264)(5.1 DTS-5.1 DD)(ENG NL SUBS)2Lions-Team

Trackers

tracker name Status checked seeders leechers downloads
udp://tracker.publicbt.com:80/announce
outdated 20 Apr 2014 - - -
udp://tracker.openbittorrent.com:80/announce
outdated 20 Apr 2014 - - -
udp://inferno.demonoid.com:3400/announce
outdated 04 Sep 2013 - - -
http://exodus.1337x.org/announce
outdated 04 Sep 2013 - - -
http://tracker.openbittorrent.com/announce
outdated 04 Sep 2013 - - -
http://nemesis.1337x.org/announce
outdated 04 Sep 2013 - - -
http://tracker.bittorrent.am/announce
outdated 04 Sep 2013 - - -
http://genesis.1337x.org:1337/announce
outdated 04 Sep 2013 - - -
http://tracker.publicbt.com/announce
deleted 04 Sep 2013 - - -
http://fr33dom.h33t.com:3310/announce
deleted 04 Sep 2013 - - -
http://inferno.demonoid.com:3400/announce
error 07 Aug 2010 - - -
http://tracker.mightynova.com:4315/announce
error 06 Aug 2010 - - -
ĀµTorrent compatible trackers list

Locations

name
KickassTorrents
ThePirateBay
1337x
ExtraTorrent
Limetorrents
Torrent hash: 53714b85101cd8b9d47773b4d067e92ad83f2aeb

All Comments

audio
0/10
video
0/10
please, leave only comments related to that torrent
or sign-in
-1
djsum67 • 25 November 2012, 14:53 Show comment
There you go (MEDIA INFO):
Video
ID : 1
Format : AVC
Format/Info : Advanced Video Codec
Format profile : High@L4.0
Format settings, CABAC : Yes
Format settings, ReFrames : 5 frames
Codec ID : V_MPEG4/ISO/AVC
Duration : 1h 52mn
Bit rate : 8 575 Kbps
Width : 1 920 pixels
Height : 816 pixels
Display aspect ratio : 2.35:1
Frame rate : 23.976 fps
Color space : YUV
Chroma subsampling : 4:2:0
Bit depth : 8 bits
Scan type : Progressive
Bits/(Pixel*Frame) : 0.228
Stream size : 6.57 GiB (78%)
Title : x264
Writing library : x264 core 104 r1683 62997d6
Encoding settings : cabac=1 / ref=5 / deblock=1:0:0 / analyse=0x3:0x113 / me=umh / subme=7 / psy=1 / psy_rd=1.00:0.00 / mixed_ref=1 / me_range=16 / chroma_me=1 / trellis=1 / 8x8dct=1 / cqm=0 / deadzone=21,11 / fast_pskip=0 / chroma_qp_offset=-2 / threads=12 / sliced_threads=0 / nr=0 / decimate=1 / interlaced=0 / constrained_intra=0 / bframes=3 / b_pyramid=2 / b_adapt=1 / b_bias=0 / direct=1 / weightb=1 / open_gop=0 / weightp=2 / keyint=250 / keyint_min=23 / scenecut=40 / intra_refresh=0 / rc_lookahead=40 / rc=2pass / mbtree=1 / bitrate=8575 / ratetol=1.0 / qcomp=0.60 / qpmin=10 / qpmax=51 / qpstep=4 / cplxblur=20.0 / qblur=0.5 / ip_ratio=1.40 / aq=1:1.00
Language : English
Audio #1
ID : 2
Format : AC-3
Format/Info : Audio Coding 3
Mode extension : CM (complete main)
Codec ID : A_AC3
Duration : 1h 52mn
Bit rate mode : Constant
Bit rate : 640 Kbps
Channel(s) : 6 channels
Channel positions : Front: L C R, Side: L R, LFE
Sampling rate : 48.0 KHz
Bit depth : 16 bits
Compression mode : Lossy
Stream size : 515 MiB (6%)
Title : AC3
Language : English
Audio #2
ID : 3
Format : DTS
Format/Info : Digital Theater Systems
Codec ID : A_DTS
Duration : 1h 52mn
Bit rate mode : Constant
Bit rate : 1 510 Kbps
Channel(s) : 6 channels
Channel positions : Front: L C R, Side: L R, LFE
Sampling rate : 48.0 KHz
Bit depth : 24 bits
Compression mode : Lossy
Stream size : 1.19 GiB (14%)
Title : DTS
Language : English
Text #1
ID : 4
Format : UTF-8
Codec ID : S_TEXT/UTF8
Codec ID/Info : UTF-8 Plain Text
Title : Subtitles
Language : Dutch
Text #2
ID : 5
Format : UTF-8
Codec ID : S_TEXT/UTF8
Codec ID/Info : UTF-8 Plain Text
Title : Subtitles
Language : English
Menu
00:00:00.000 : en:Video Start
00:05:00.000 : en:Chapter 1 - 00 Hr 05 Min
00:10:00.000 : en:Chapter 2 - 00 Hr 10 Min
00:15:00.000 : en:Chapter 3 - 00 Hr 15 Min
00:20:00.000 : en:Chapter 4 - 00 Hr 20 Min
00:25:00.000 : en:Chapter 5 - 00 Hr 25 Min
00:30:00.000 : en:Chapter 6 - 00 Hr 30 Min
00:35:00.000 : en:Chapter 7 - 00 Hr 35 Min
00:40:00.000 : en:Chapter 8 - 00 Hr 40 Min
00:45:00.000 : en:Chapter 9 - 00 Hr 45 Min
00:50:00.000 : en:Chapter 10 - 00 Hr 50 Min
00:55:00.000 : en:Chapter 11 - 00 Hr 55 Min
01:00:00.000 : en:Chapter 12 - 01 Hr 00 Min
01:05:00.000 : en:Chapter 13 - 01 Hr 05 Min
01:10:00.000 : en:Chapter 14 - 01 Hr 10 Min
01:15:00.000 : en:Chapter 15 - 01 Hr 15 Min
01:20:00.000 : en:Chapter 16 - 01 Hr 20 Min
01:25:00.000 : en:Chapter 17 - 01 Hr 25 Min
01:30:00.000 : en:Chapter 18 - 01 Hr 30 Min
01:35:00.000 : en:Chapter 19 - 01 Hr 35 Min
01:40:00.000 : en:Chapter 20 - 01 Hr 40 Min
01:45:00.000 : en:Chapter 21 - 01 Hr 45 Min
01:50:00.000 : en:Chapter 22 - 01 Hr 50 Min
0
anonymous • 20 September 2012, 07:49 Show comment
Even in the Info file from this torrent uploader "forget" to mention about width & height of the movie. To see this, must download the whole movie? It have 8,43 GB!!!!!!!
0
djsum67 • 25 November 2012, 14:53 Show comment
Not to mention.. its the real deal.. :) Absolutely the best quality..
Report a bug