SATAN - Yo Yo Honey Singh - Full Song HD - S A T A N - 12 12 12 720p [PKG]

seeders: 5
leechers: 2
Added on Dec 23, 2012 by praneetgupta1050 in Movies > Music videos
Torrent verified by Prairi3DoG109177, 1 year and 3 months ago. Downloaded 288 times.

SATAN - Yo Yo Honey Singh - Full Song HD - S A T A N - 12 12 12 720p [PKG] (Size: 116.21 MB)
  SATAN - Yo Yo Honey Singh - Full Song HD - S.A.T.A.N - 12.12.12.mp4 116.21 MB
  Torrent Downloaded From ExtraTorrent.com.txt 353 bytes

Description

SATAN - Yo Yo Honey Singh - Full Song HD - S A T A N - 12 12 12 720p [PKG]

Small In Size But Best IN QUALITY....
Unbeatable QUALITY..


image
image
image
image
image

General
Complete name : D:\Downloads\SATAN - Yo Yo Honey Singh - Full Song HD - S.A.T.A.N - 12.12.12\SATAN - Yo Yo Honey Singh - Full Song HD - S.A.T.A.N - 12.12.12.mp4
Format : MPEG-4
Format profile : Base Media / Version 2
Codec ID : mp42
File size : 116 MiB
Duration : 7mn 29s
Overall bit rate mode : Variable
Overall bit rate : 2 168 Kbps
Encoded date : UTC 2012-12-10 09:22:21
Tagged date : UTC 2012-12-10 09:22:21
gsst : 0
gstd : 449746
gssd : B4A7DA981HH1356195580213979
gshh : r3---sn-h557sn7r.c.youtube.com

Video
ID : 1
Format : AVC
Format/Info : Advanced Video Codec
Format profile : High@L3.1
Format settings, CABAC : Yes
Format settings, ReFrames : 1 frame
Format settings, GOP : M=1, N=60
Codec ID : avc1
Codec ID/Info : Advanced Video Coding
Duration : 7mn 29s
Bit rate : 1 974 Kbps
Maximum bit rate : 6 953 Kbps
Width : 1 280 pixels
Height : 720 pixels
Display aspect ratio : 16:9
Frame rate mode : Constant
Frame rate : 25.000 fps
Color space : YUV
Chroma subsampling : 4:2:0
Bit depth : 8 bits
Scan type : Progressive
Bits/(Pixel*Frame) : 0.086
Stream size : 106 MiB (91%)
Tagged date : UTC 2012-12-10 09:22:21

Audio
ID : 2
Format : AAC
Format/Info : Advanced Audio Codec
Format profile : LC
Codec ID : 40
Duration : 7mn 29s
Bit rate mode : Variable
Bit rate : 192 Kbps
Maximum bit rate : 202 Kbps
Channel(s) : 2 channels
Channel positions : Front: L R
Sampling rate : 44.1 KHz
Compression mode : Lossy
Stream size : 10.3 MiB (9%)

Related Torrents

torrent name size files age seed leech

Sharing Widget


Download torrent
116.21 MB
seeders:5
leechers:2
SATAN - Yo Yo Honey Singh - Full Song HD - S A T A N - 12 12 12 720p [PKG]

Trackers

tracker name Status checked seeders leechers downloads
udp://tracker.1337x.org:80/announce
outdated 12 Apr 2013 - - -
udp://tracker.ccc.de:80/announce
outdated 12 Apr 2013 - - -
http://tracker.ex.ua/announce
outdated 12 Apr 2013 - - -
udp://tracker.publicbt.com:80/announce
outdated 12 Apr 2013 - - -
udp://tracker.istole.it:80/announce
outdated 12 Apr 2013 - - -
udp://tracker.openbittorrent.com:80/announce
outdated 12 Apr 2013 - - -
http://exodus.desync.com:6969/announce
blocked 12 Apr 2013 - - -
udp://fr33dom.h33t.com:3310/announce
deleted 12 Apr 2013 - - -
udp://fr33domtracker.h33t.com:3310/announce
deleted 12 Apr 2013 - - -
udp://9.rarbg.com:2710/announce
pending 12 Apr 2013 2 0 288
ĀµTorrent compatible trackers list

Locations

name author
KickassTorrents praneetgupta
Torrent hash: 2EA57D94243B4AFD3F7146F80C9222DA385AD801

All Comments

audio
10/10
video
10/10
please, leave only comments related to that torrent
or sign-in
0
rainy_eyes5 • 03 April 2013, 10:29 Show comment
nice collect of songs bro
1
kumarbigbang321 • 10 February 2013, 13:51
torrent downloaded
Show comment
lol where r the seeedssssss
1
Prairi3DoG109177 • 28 December 2012, 03:56
torrent downloaded
Show comment
audio: 10video: 10
Tested + Verified
Fast Download too :)
Keep Up the good Work mate :)
-1
anonymous • 12 January 2013, 06:50 Show comment
fail print
-1
anonymous • 07 February 2013, 23:44 Show comment
dude stop appreciating ur own posts

User Opinions

Prairi3DoG109177, vtv074129, lskgreat814, aman1515716, cancerz322, AbdullSamad149
Report a bug