Safe House 2012 TS READNFO XviD AC3-26K

seeders: 54
leechers: 3
Added on Feb 13, 2012 by hail_alpha66.35K in Movies > Highres Movies
Torrent verified. Downloaded 25,065 times.

Summary:
A young CIA agent is tasked with looking after a fugitive in a safe house. But when the safe house is attacked, he finds himself on the run with his charge.
Submitted by thePiratePimp46.86K
Not verified report summary
Safe House 2012 TS READNFO XviD AC3-26K (Size: 1.43 GB)
  HDSceneRG.txt 115 bytes
  Safe House 2012 TS READNFO XviD AC3-26K.avi 1.41 GB
  Safe House 2012 TS READNFO XviD AC3-26K.nfo 3.27 KB
  Torrent downloaded from Demonoid.me.txt 46 bytes
  Torrent downloaded from rarbg.com.txt.txt 0 bytes
  att-networks.com.txt 39 bytes
  sample.avi 23.37 MB
  Sceneunderground.org.txt 77 bytes

Description

image

Safe House 2012 TS READNFO XviD AC3-26K
Imdb:
http://www.imdb.com/title/tt1599348/

Plot:
A young CIA agent is tasked with looking after a fugitive in a safe house. But 

when the safe house is attacked, he finds himself on the run with his charge.

Sources:
V: LUM1X
A: LittlebirD

Notes:
Video is good, there is some blank bits in the video !! around for 3 - 4 

minutes...
audio is very good thnxs to littlebird !!
added a few filters to the video to make it look nice :P
take it or leave it

Greetz:
Xtreme 

Encode|FYA|ILLUMANTI|CM8|RX|VISION|HDSCENE|NIGHTMAREZ|xTriLL|DTRG|CRYS|REMIXHD|BID

A|RX|REFILL|INSPiRAL|SIC|ZOMBIESZ|HOPE|Anonymous|GooN
To all the people who have helped me :P you know who you are

Anything to offer email us @: 26k@hushmail.me
Video
ID : 0
Format : MPEG-4 Visual
Format profile : Advanced Simple@L5
Format settings, BVOP : 2
Format settings, QPel : No
Format settings, GMC : No warppoints
Format settings, Matrix : Default (H.263)
Codec ID : XVID
Codec ID/Hint : XviD
Duration : 1h 44mn
Bit rate : 1 690 Kbps
Width : 720 pixels
Height : 272 pixels
Display aspect ratio : 2.647
Frame rate : 25.000 fps
Color space : YUV
Chroma subsampling : 4:2:0
Bit depth : 8 bits
Scan type : Progressive
Compression mode : Lossy
Bits/(Pixel*Frame) : 0.345
Stream size : 1.24 GiB (88%)
Writing library : XviD 64

Audio
ID : 1
Format : AC-3
Format/Info : Audio Coding 3
Mode extension : CM (complete main)
Codec ID : 2000
Duration : 1h 44mn
Source duration : 1h 44mn
Bit rate mode : Constant
Bit rate : 224 Kbps
Channel(s) : 2 channels
Channel positions : Front: L R
Sampling rate : 44.1 KHz
Bit depth : 16 bits
Compression mode : Lossy
Stream size : 168 MiB (12%)
Alignment : Aligned on interleaves
Interleave, duration : 35 ms (0.87 video frame)


Screens:
image
image
image
image
image
image
image
image

image
Thank you smallz for banner!

Related Torrents

torrent name size files age seed leech

Sharing Widget


Download torrent
1.43 GB
seeders:54
leechers:3
Safe House 2012 TS READNFO XviD AC3-26K

Trackers

tracker name Status checked seeders leechers downloads
http://tracker.torrentbay.to:6969/announce
outdated 02 Dec 2012 - - -
http://inferno.demonoid.me:3414/announce
outdated 18 Nov 2012 - - -
http://10.rarbg.com/announce
private 30 Jul 2012 - - -
udp://9.rarbg.com:2710/announce
outdated 30 Jul 2012 - - -
http://cpleft.com:2710/announce
outdated 30 Jul 2012 - - -
udp://tracker.1337x.org:80/announce
outdated 30 Jul 2012 - - -
udp://tracker.publicbt.com:80/announce
outdated 30 Jul 2012 - - -
http://tracker.openbittorrent.com/announce
outdated 30 Jul 2012 - - -
udp://tracker.openbittorrent.com:80/announce
outdated 30 Jul 2012 - - -
http://announce.torrentsmd.com:6969/announce
outdated 30 Jul 2012 - - -
http://tracker.ex.ua/announce
outdated 30 Jul 2012 - - -
http://exodus.desync.com:6969/announce
blocked 23 Aug 2012 - - -
http://fr33dom.h33t.com:3310/announce
deleted 20 May 2013 - - -
http://tracker.publicbt.com/announce
deleted 11 Mar 2013 - - -
http://tracker.novalayer.org:6969/announce
pending 30 Jul 2012 0 0 0
ĀµTorrent compatible trackers list

Locations

name
KickassTorrents
Limetorrents
ExtraTorrent
Torrent hash: 13FE912090FF1746EAECD0BA74B54A0FD212BA8D

All Comments

audio
3/10
video
3/10
please, leave only comments related to that torrent
or sign-in
0
Tuklu10.02K • 08 June 2012, 09:14
torrent downloaded
Show comment
audio: 4video: 4
0
anonymous • 15 February 2012, 05:58 Show comment
not a good copy. cam gets turned on and off during movie resulting in missing scenes. also can goes black for a while but you can still here the movie with no picture.
0
millwall99319 • 14 February 2012, 23:23
torrent downloaded
Show comment
audio: 4video: 4
0
anonymous • 14 February 2012, 07:47 Show comment
audio: 1video: 1
yuck

User Opinions

Report a bug