Safe House 2012 720p BRRip x264 Feel-Free

seeders: 2
leechers: 2
Added on May 28, 2012 by feel-free20.08K in Movies > Highres Movies
Torrent verified. Downloaded 10 times.

Summary:
A young CIA agent is tasked with looking after a fugitive in a safe house. But when the safe house is attacked, he finds himself on the run with his charge.
Submitted by thePiratePimp47.88K
report summary
Safe House 2012 720p BRRip x264 Feel-Free (Size: 2.72 GB)
  46ebc0d814.jpg 329.39 KB
  Safe House 2012 720p BRRip x264 Feel-Free.mp4 2.71 GB
  Safe House 2012 720p BRRip x264 Feel-Free.nfo 3.31 KB
  Torrent downloaded from extratorrent.com.txt 171 bytes
  vlcsnap-2012-05-28-18h37m57s71.png 1.06 MB
  vlcsnap-2012-05-28-18h38m17s38.png 1.05 MB
  vlcsnap-2012-05-28-18h38m42s33.png 1.47 MB
  vlcsnap-2012-05-28-18h39m33s29.png 1.07 MB
  vlcsnap-2012-05-28-18h40m01s51.png 786 KB
  vlcsnap-2012-05-28-18h41m36s234.png 1 MB

Description

image
image



Genre:Action | Crime | Mystery
Language:English
IMDb:http://www.imdb.com/title/tt1599348/
Source:1080p.BluRay.X264-BLOW Thanks!
Encoder:Tony

Format : MPEG-4
Format profile : Base Media
Codec ID : isom
File size : 2.71 GiB
Duration : 1h 54mn
Overall bit rate mode : Variable
Overall bit rate : 3 380 Kbps

Video
ID : 1
Format : AVC
Format/Info : Advanced Video Codec
Format profile : High@L4.1
Format settings, CABAC : Yes
Format settings, ReFrames : 8 frames
Codec ID : avc1
Codec ID/Info : Advanced Video Coding
Duration : 1h 54mn
Bit rate : 3 000 Kbps
Maximum bit rate : 22.1 Mbps
Width : 1 280 pixels
Height : 536 pixels
Display aspect ratio : 2.40:1
Frame rate mode : Constant
Frame rate : 23.976 fps
Color space : YUV
Chroma subsampling : 4:2:0
Bit depth : 8 bits
Scan type : Progressive
Bits/(Pixel*Frame) : 0.182
Stream size : 2.35 GiB (87%)
Writing library : x264

Audio
ID : 2
Format : AAC
Format/Info : Advanced Audio Codec
Format profile : LC
Codec ID : 40
Duration : 1h 54mn
Bit rate mode : Variable
Bit rate : 444 Kbps
Maximum bit rate : 517 Kbps
Channel(s) : 6 channels
Channel positions : Front: L C R, Side: L R, LFE
Sampling rate : 48.0 KHz
Compression mode : Lossy
Stream size : 365 MiB (13%)

Plot:
A young CIA agent is tasked with looking after a fugitive in a safe house. But when the safe house is attacked, he finds himself on the run with his charge

TRAILER:
[embed=youtube]http://www.youtube.com/watch?v=1IfQY4fNcnw&feature=player_embedded[/embed]

image
image
image
image
image
image

Greets:
CRYS,INSPiRAL,IMAGINE,LKRG,ADTRG,FXG,3Li,FLAWL3SS,TA,iLLUSiON,EMBER,HOPE,GooN,BBnRG,NOGRP,ETRG,BHRG,iLLUMiNATi,MiSTERE.ViSiON,DTRG SAFCuk009,LU,TheFalcon007,MYSTiC,PrisM,Noir,WBZ,LAP,Rx,Kingdom,SAFCuk009+Fabreezy,HDLiTE,TWiZTED,ETRG.ELEKTRI4KA,MAGNAT,CM8
And to all the other p2p grps past and present


Make sure its a real Feel-Free release @ http://extratorrent.com
Thanks to all who promotes release Feel-Free !!!


Make sure its a real Feel-Free release @ http://extratorrent.com
Thanks to all who promotes release Feel-Free !!!

Related Torrents

torrent name size files age seed leech

Sharing Widget


Download torrent
2.72 GB
seeders:2
leechers:2
Safe House 2012 720p BRRip x264 Feel-Free

Trackers

tracker name Status checked seeders leechers downloads
udp://tracker.istole.it:80/announce
outdated 03 Jun 2014 - - -
udp://tracker.publicbt.com:80/announce
outdated 03 Jun 2014 - - -
udp://tracker.openbittorrent.com:80/announce
outdated 03 Jun 2014 - - -
udp://tracker.1337x.org:80/announce
outdated 14 Sep 2013 - - -
http://pow7.com/announce
outdated 14 Sep 2013 - - -
http://tracker.istole.it/announce
outdated 14 Sep 2013 - - -
http://exodus.desync.com:6969/announce
blocked 14 Sep 2013 - - -
udp://fr33domtracker.h33t.com:3310/announce
deleted 14 Sep 2013 - - -
http://tracker.publicbt.com/announce
deleted 14 Sep 2013 - - -
http://tracker.novalayer.org:6969/announce
pending 14 Sep 2013 0 0 0
ĀµTorrent compatible trackers list

Locations

name
KickassTorrents
Torrent hash: D3010B887886F77CFFE558852AB5052C401524EF

All Comments

audio
9/10
video
9/10
please, leave only comments related to that torrent
or sign-in
0
Alow59 • 19 December 2012, 18:56
torrent downloaded
Show comment
enjoyed the film, very watchable. Thanks for the upload.
0
Danijel0681889 • 20 August 2012, 15:57
torrent downloaded
Show comment
audio: 10video: 10
awesome movie looks like with CIA and Denzel (spy)biggrin
0
Leadreign45 • 06 August 2012, 06:01
torrent downloaded
Show comment
audio: 10video: 10
Skimmed, bluray quality, audio seems good.
0
bacluci267 • 05 July 2012, 20:51
torrent downloaded
Show comment
audio: 10video: 10
0
deadlyslug60 • 27 June 2012, 00:41
torrent downloaded
Show comment
audio: 9video: 9
damn good movie, wish Denzel Washington did more movies like this.
0
Alen6666805 • 04 June 2012, 13:16
torrent downloaded
Show comment
audio: 9video: 10
Good quality and great action movie
0
jasw288414 • 02 June 2012, 02:07
torrent downloaded
Show comment
audio: 9video: 9
great
0
Mrk11255 • 01 June 2012, 20:11 Show comment
audio: 10video: 10
0
bladereap3r4473 • 30 May 2012, 21:15
torrent downloaded
Show comment
...my thanx...+1

User Opinions

jasw288414, morfeas19817280, Alen6666805, Aquaz3450, andre_madureira1765, Mrk11255, emrahatilkan199, FoxFiveOh120, deadlyslug60, nouvoman34 ... And 13 more
Report a bug