Saadi Love Story 2013 Hindi Punjabi Movies New Source DvDScr Sample Included ~ rDX

seeders: 10
leechers: 11
Added on Jan 23, 2013 by teamrdx7633 in Movies > Bollywood
Torrent verified. Downloaded 2,321 times.

Saadi Love Story 2013 Hindi Punjabi Movies New Source DvDScr Sample Included ~ rDX (Size: 721 MB)
  Saadi Love Story 2013 Hindi Punjabi Movies New Source DvDScr ~ rDX.mkv 714.87 MB
  Sample ~ Saadi Love Story 2013 Hindi Punjabi Movies New Source DvDScr ~ rDX.mkv 6.13 MB

Description

Saadi Love Story 2013 Hindi Punjabi Movies New Source DvDScr Sample Included ~ rDX

Screen Shots :

http://myimghosting.serveftp.com/SaadiLovStoryDVD.html

http://myimghost.cwahi.net/SaadiLovStoryDVD.html



Format : Matroska
Format version : Version 2
File size : 715 MiB
Duration : 1h 44mn
Overall bit rate : 953 Kbps
Movie name : Saadi Love Story 2013 DVDScr Hindi
Encoded date : UTC 2013-01-22 15:50:29
Writing library : libebml v1.2.3 + libmatroska v1.3.0

Video
ID : 1
Format : MPEG-4 Visual
Format profile : Advanced Simple@L5
Format settings, BVOP : Yes
Format settings, QPel : Yes
Format settings, GMC : No warppoints
Format settings, Matrix : Default (H.263)
Codec ID : V_MS/VFW/FOURCC / XVID
Codec ID/Hint : XviD
Duration : 1h 44mn
Bit rate : 806 Kbps
Width : 640 pixels
Height : 272 pixels
Display aspect ratio : 2.35:1
Frame rate mode : Constant
Frame rate : 23.976 fps
Color space : YUV
Chroma subsampling : 4:2:0
Bit depth : 8 bits
Scan type : Progressive
Compression mode : Lossy
Bits/(Pixel*Frame) : 0.193
Stream size : 605 MiB (85%)
Title : Saadi Love Story 2013 DVDScr Hindi
Writing library : XviD 1.2.1 (UTC 2008-12-04)
Language : Hindi
Default : Yes
Forced : No

Audio
ID : 2
Format : MPEG Audio
Format version : Version 1
Format profile : Layer 2
Muxing mode : Header stripping
Codec ID : A_MPEG/L2
Codec ID/Hint : MP2
Duration : 1h 44mn
Bit rate mode : Constant
Bit rate : 128 Kbps
Channel(s) : 2 channels
Sampling rate : 48.0 KHz
Compression mode : Lossy
Stream size : 96.0 MiB (13%)
Title : Saadi Love Story 2013 DVDScr Hindi
Language : Hindi
Default : Yes
Forced : No

Sharing Widget


Download torrent
721 MB
seeders:10
leechers:11
Saadi Love Story 2013 Hindi Punjabi Movies New Source DvDScr Sample Included ~ rDX

Trackers

tracker name Status checked seeders leechers downloads
udp://9.rarbg.com:2710/announce
active 18 Oct 2014 9 10 2321
udp://tracker.istole.it:80/announce
active 18 Oct 2014 10 9 10
udp://coppersurfer.tk:6969/announce
active 18 Oct 2014 10 11 511
udp://tracker.publicbt.com:80/announce
active 18 Oct 2014 6 6 10
udp://tracker.openbittorrent.com:80/announce
active 18 Oct 2014 5 7 10
http://exodus.desync.com/announce
blocked 08 Feb 2014 - - -
udp://tracker.ccc.de:80/announce
deleted 20 Dec 2013 - - -
udp://fr33domtracker.h33t.com:3310/announce
deleted 20 Dec 2013 - - -
udp://fr33dom.h33t.com:3310/announce
deleted 20 Dec 2013 - - -
ĀµTorrent compatible trackers list

Locations

name
KickassTorrents
Torrent hash: 021CA87E12947428ABDB10433ABAF0DF844E597F

All Comments

audio
5/10
video
5/10
please, leave only comments related to that torrent
or sign-in
0
gayatri67811275 • 04 August 2013, 05:24
torrent downloaded
Show comment
audio: 5video: 6
0
anonymous • 01 July 2013, 21:46 Show comment
lund movie
0
anonymous • 08 June 2013, 18:29 Show comment
doesnt work
0
anonymous • 23 May 2013, 05:50 Show comment
audio: 1video: 1
bakwas movie
0
anonymous • 30 April 2013, 15:25 Show comment
Good Movie Yr ..=.Enjoyable movie...,.. :)
0
anonymous • 21 April 2013, 10:13 Show comment
audio: 7video: 6
very nice movie........
0
anonymous • 22 February 2013, 11:31 Show comment
audio video excellent...movie is a bitch...
0
Hassanshafi151 • 11 February 2013, 12:50
torrent downloaded
Show comment
audio: 6video: 6
nice movie
0
anonymous • 31 January 2013, 14:35 Show comment
audio: 10video: 10
good audio and vidio
Show More

User Opinions

harry19041311, paragpan1205, cheeemmmzzz732, nikkuboy534, arshsingh421, Rajat1311394, Zaman.Ali378, sajalrox12234, mudyy.28150, sivarajan071138 ... And 15 more
King_alvi1167, harrysanawar846, saamra75, multisam13
Report a bug