Romeo Must Die (2000)[BDRip.x264-AC3][Eng]

seeders: 0
leechers: 1
Added on Nov 30, 2012 by alE136089 in Movies
Torrent verified. Downloaded 0 times.

Romeo Must Die (2000)[BDRip.x264-AC3][Eng] (Size: 2.22 GB)
  SUB
  Romeo Must Die (2000)-alE13.mkv 2.21 GB
  80178e56f4f1c2146bc7e4dd32e0cfe4.png 459.6 KB
  Nostalgie.jpg 140.78 KB
  1.jpg 112.27 KB
  vlcsnap-2012-11-29-23h09m42s29.jpg 89.68 KB
  vlcsnap-2012-11-29-23h09m26s191.jpg 75.25 KB
  vlcsnap-2012-11-29-23h10m00s22.jpg 56.3 KB
  Torrent downloaded from alE13 torrents at BTScene.eu.txt 119 bytes

Description

image

gatunek: Thriller, Akcja,
produkcja: USA,
premiera: 2000-03-20
reżyseria: Andrzej Bartkowiak,
scenariusz: Eric Bernt, John Jarrell,
muzyka: Stanley Clarke
zdjęcia: Glen MacPherson
Czas: 01:55:03

Opis:
An avenging cop seeks out his brother's killer and falls for the
daughter of a businessman who is involved in a money-deal with
his father.
Na ekrany polskich kin wchodzi właśnie film "Romeo musi umrzeć" -
obraz, który przebojem podbił serca (i kieszenie) widowni amerykańskiej.
Nie byłoby się czym ekscytować, gdyby nie podkreślany do znudzenia
przez dystrybutorów fakt, iż jego reżyserem jest nasz rodak,
Andrzej Bartkowiak. Ten ceniony skądinąd operator, pracujący od lat w USA
autor zdjęć do tak głośnych produkcji, jak choćby "Czułe słówka", "Werdykt",
"Gatunek", czy "Adwokat diabła", zadebiutował tu jako reżyser filmu,
któremu nadano rozgłos, zanim jeszcze trafił na ekrany.

image
image
image
Obsada:
Jet Li.............. Han Sing
Aaliyah............. Trish O'Day
Isaiah Washington... Mac
Dane techniczne:
Romeo Must Die (2000)-alE13.mkv
Format : Matroska
File size : 2.21 GiB
Duration : 1h 55mn
Overall bit rate : 2 748 Kbps
Movie name : Assault On Precinct 13 (2005)-alE13
Encoded date : UTC 2012-11-29 22:13:29
Writing application : mkvmerge v5.8.0 ('No Sleep / Pillow') built on Sep 2 2012 15:37:04
Writing library : libebml v1.2.3 + libmatroska v1.3.0
Video
ID : 1
Format : AVC
Format/Info : Advanced Video Codec
Format profile : Main@L4.0
Format settings, CABAC : Yes
Format settings, ReFrames : 2 frames
Muxing mode : Container profile=Unknown@4.0
Codec ID : V_MPEG4/ISO/AVC
Duration : 1h 55mn
Bit rate : 2 247 Kbps
Width : 1 920 pixels
Height : 1 080 pixels
Display aspect ratio : 16:9
Frame rate mode : Variable
Frame rate : 23.976 fps
Color space : YUV
Chroma subsampling : 4:2:0
Bit depth : 8 bits
Scan type : Progressive
Bits/(Pixel*Frame) : 0.045
Stream size : 1.75 GiB (79%)
Writing library : x264 core 112 r1834 a51816a
Audio
ID : 2
Format : AC-3
Format/Info : Audio Coding 3
Mode extension : CM (complete main)
Muxing mode : Header stripping
Codec ID : A_AC3
Duration : 1h 55mn
Bit rate mode : Constant
Bit rate : 512 Kbps
Channel(s) : 6 channels
Channel positions : Front: L C R, Side: L R, LFE
Sampling rate : 48.0 KHz
Bit depth : 16 bits
Stream size : 421 MiB (19%)
Text #1
ID : 3
Format : VobSub
Codec ID : S_VOBSUB
Codec ID/Info : The same subtitle format used on DVDs
Language : Polish
Text #2
ID : 4
Format : VobSub
Codec ID : S_VOBSUB
Codec ID/Info : The same subtitle format used on DVDs
Language : English

Related Torrents

torrent name size files age seed leech

Sharing Widget


Download torrent
2.22 GB
seeders:0
leechers:1
Romeo Must Die (2000)[BDRip.x264-AC3][Eng]

Trackers

tracker name Status checked seeders leechers downloads
udp://tracker.publicbt.com:80/announce
active 31 Jul 2014 0 1 0
udp://tracker.openbittorrent.com:80/announce
active 31 Jul 2014 0 1 0
udp://tracker.istole.it:80/announce
outdated 05 Dec 2012 - - -
http://exodus.desync.com:6969/announce
blocked 05 Dec 2012 - - -
http://fr33dom.h33t.com:3310/announce
deleted 20 May 2013 - - -
udp://fr33domtracker.h33t.com:3310/announce
deleted 05 Dec 2012 - - -
http://tracker.torrent-polska.info:2710/announce
pending 05 Dec 2012 0 0 0
µTorrent compatible trackers list

Locations

name
KickassTorrents
Torrent hash: 00C156DC55C935A16E121FB3CE987BA9B03E5DA0

All Comments

audio
0/10
video
0/10
please, leave only comments related to that torrent
or sign-in

User Opinions

Report a bug