Rock Of Ages 2012 DVDRIP XviD-MAXIMUS

seeders: 159
leechers: 6
Added on Sep 26, 2012 by Hackullus42.33K in Movies
Torrent verified. Downloaded 10 times.

Rock Of Ages 2012 DVDRIP XviD-MAXIMUS (Size: 807.25 MB)
  Rock Of Ages 2012 DVDRIP XviD-MAXIMUS.avi 807.25 MB
  RoA.nfo 2.71 KB
  Torrent downloaded from AhaShare.com.txt 59 bytes
  Torrent downloaded from extratorrent.com.txt 40 bytes
  Torrent downloaded from Rarbg.com.txt 33 bytes
  torrent downloaded from H33T.com.txt 32 bytes

Description

image

Complete name : CRock Of Ages 2012 DVDRIP XviD-MAXIMUS\Rock Of Ages 2012 DVDRIP XviD-MAXIMUS.avi
Format : AVI
Format/Info : Audio Video Interleave
File size : 807 MiB
Duration : 2h 1mn
Overall bit rate : 933 Kbps
Writing application : VirtualDubMod 1.5.10.2 (build 2540/release)
Writing library : VirtualDubMod build 2540/release

Video
ID : 0
Format : MPEG-4 Visual
Format profile : Advanced Simple@L5
Format settings, BVOP : 2
Format settings, QPel : No
Format settings, GMC : No warppoints
Format settings, Matrix : Default (H.263)
Muxing mode : Packed bitstream
Codec ID : XVID
Codec ID/Hint : XviD
Duration : 2h 1mn
Bit rate : 795 Kbps
Width : 608 pixels
Height : 256 pixels
Display aspect ratio : 2.40:1
Frame rate : 23.976 fps
Color space : YUV
Chroma subsampling : 4:2:0
Bit depth : 8 bits
Scan type : Progressive
Compression mode : Lossy
Bits/(Pixel*Frame) : 0.213
Stream size : 688 MiB (85%)
Writing library : XviD 64

Audio
ID : 1
Format : MPEG Audio
Format version : Version 1
Format profile : Layer 3
Codec ID : 55
Codec ID/Hint : MP3
Duration : 2h 1mn
Bit rate mode : Constant
Bit rate : 128 Kbps
Channel(s) : 2 channels
Sampling rate : 44.1 KHz
Compression mode : Lossy
Stream size : 111 MiB (14%)
Alignment : Split accross interleaves
Interleave, duration : 42 ms (1.00 video frame)
Interleave, preload duration : 500 ms
Writing library : LAME3.98.4

image
image
image

Related Torrents

torrent name size files age seed leech

Sharing Widget


Download torrent
807.25 MB
seeders:159
leechers:6
Rock Of Ages 2012 DVDRIP XviD-MAXIMUS

Trackers

tracker name Status checked seeders leechers downloads
udp://tracker.openbittorrent.com:80/announce
outdated 21 Mar 2014 - - -
udp://tracker.publicbt.com:80/announce
outdated 21 Mar 2014 - - -
udp://tracker.istole.it:80/announce
outdated 16 Sep 2013 - - -
udp://fr33domtracker.h33t.com:3310/announce
deleted 16 Sep 2013 - - -
udp://tracker.beeimg.com:6969/announce
pending 22 Nov 2013 0 0 0
ĀµTorrent compatible trackers list

Locations

name
KickassTorrents
ThePirateBay
Torrent hash: 4A72E0596DF56946DCDBEAE1D6DDFB55CA997B52

Top Comments

22
Mares17103 • 26 Sep 2012, 12:24
audio: 8video: 9
Great rip, thanksimageimageimage
18
anonymous • 26 Sep 2012, 18:20
the audio is fine on my end. Try using VLC like EVERYONE on here's already said a million times. duh
11
anonymous • 26 Sep 2012, 14:55
No it's not try using VLC, the other torrent was out of sync mr shouty.

All Comments

audio
8/10
video
8/10
please, leave only comments related to that torrent
or sign-in
0
mctasty824 • 19 August 2014, 20:37
torrent downloaded
Show comment
audio: 8video: 9
0
anonymous • 13 January 2014, 17:44 Show comment
audio: 10video: 10
Loved movie, great music, perfect download. only issue. cineva protected. put on flashdrive to play on bluray. wouldn't play not on xbox360 either
0
Opsylum9072 • 19 December 2013, 08:00
torrent downloaded
Show comment
audio: 8video: 8
0
Bastian1013227 • 09 November 2013, 10:11
torrent downloaded
Show comment
Nice quality
0
yunice77 • 28 October 2013, 00:39
torrent downloaded
Show comment
audio: 9video: 8
0
anonymous • 13 October 2013, 23:36 Show comment
audio: 10video: 10
Great movie and more, but in the end the last 10 or 20 minutes of the movie are missing. Great torrent though...
0
renz0kuken612 • 16 September 2013, 10:01 Show comment
audio: 10video: 10
awesome
0
cooolsam185 • 10 September 2013, 10:25
torrent downloaded
Show comment
audio: 9video: 8
0
InsaneHacker3260 • 06 August 2013, 21:30
torrent downloaded
Show comment
audio: 9video: 9
lol
0
skchinmoy398 • 31 July 2013, 14:16
torrent downloaded
Show comment
audio: 9video: 9
Great
Show More

User Opinions

pollytipsy10030.29K, markozlatni1300, godslinux975, olhos835, MaxRider669, stylazation520, ac1ionm4n260, blackhawk184, viliukas112, fahdraza49 ... And 1917 more
electsub2279, babatton1220, MjrH@voc922, Riggsy719, flames_of_hate718, luisam2457, softball0086411, bilaltayyab31324, hoges7, suelec4 ... And 135 more
Report a bug