River Monsters S03E09 The Lost Reels Amazonian Giant HDTV XviD-tNe

seeders: 23
leechers: 2
Added on May 28, 2011 by tNe46.9K in TV
Torrent verified. Downloaded 171 times.

  • View all River Monsters episodes
  • Episode title: The Lost Reels - Amazonian Giant
  • Episode: S03E09
  • Air date: 27 May 2011
  • Original run: 05 April 2009 — Present
  • Summary:
    Jeremy Wade searches the world for legendary and flesh-eating freshwater fish.
    Submitted by Hobo.hxr2729
    report summary
River Monsters S03E09 The Lost Reels Amazonian Giant HDTV XviD-tNe (Size: 349.48 MB)
  River.Monsters.S03E09.The.Lost.Reels.Amazonian.Giant.HDTV.XviD-tNe.avi 349.48 MB

Description

Format : AVI
Format/Info : Audio Video Interleave
File size : 349 MiB
Duration : 42mn 7s
Overall bit rate : 1 160 Kbps
Writing application : VirtualDubMod 1.5.10.2 (build 2542/release)
Writing library : VirtualDubMod build 2542/release

Video
ID : 0
Format : MPEG-4 Visual
Format profile : Advanced Simple@L5
Format settings, BVOP : Yes
Format settings, QPel : No
Format settings, GMC : No warppoints
Format settings, Matrix : Default (H.263)
Muxing mode : Packed bitstream
Codec ID : XVID
Codec ID/Hint : XviD
Duration : 42mn 7s
Bit rate : 1 026 Kbps
Width : 624 pixels
Height : 396 pixels
Display aspect ratio : 1.576
Frame rate : 29.970 fps
Color space : YUV
Chroma subsampling : 4:2:0
Bit depth : 8 bits
Scan type : Progressive
Bits/(Pixel*Frame) : 0.139
Stream size : 309 MiB (88%)
Writing library : XviD 58

Audio
ID : 1
Format : MPEG Audio
Format version : Version 1
Format profile : Layer 3
Mode : Joint stereo
Mode extension : MS Stereo
Codec ID : 55
Codec ID/Hint : MP3
Duration : 42mn 7s
Bit rate mode : Variable
Bit rate : 120 Kbps
Channel(s) : 2 channels
Sampling rate : 48.0 KHz
Stream size : 36.2 MiB (10%)
Alignment : Aligned on interleaves
Interleave, duration : 24 ms (0.72 video frame)
Interleave, preload duration : 537 ms

Related Torrents

torrent name size files age seed leech

Sharing Widget


Download torrent
349.48 MB
seeders:23
leechers:2
River Monsters S03E09 The Lost Reels Amazonian Giant HDTV XviD-tNe

Trackers

tracker name Status checked seeders leechers downloads
http://exodus.1337x.org/announce
outdated 28 Apr 2013 - - -
http://nemesis.1337x.org/announce
outdated 28 Apr 2013 - - -
http://genesis.1337x.org:1337/announce
outdated 28 Apr 2013 - - -
http://tracker.openbittorrent.com/announce
outdated 28 Apr 2013 - - -
udp://tracker.publicbt.com:80/announce
outdated 28 Apr 2013 - - -
udp://tracker.openbittorrent.com:80/announce
outdated 28 Apr 2013 - - -
http://tracker.publicbt.com/announce
deleted 28 Apr 2013 - - -
µTorrent compatible trackers list

Locations

name
KickassTorrents
ThePirateBay
1337x
Limetorrents
Torrent hash: BCFCB80313A8BE6D579F8569BC755E9AC0B1AB0D

All Comments

audio
9/10
video
9/10
please, leave only comments related to that torrent
or sign-in
0
laurman999 • 21 March 2014, 08:47
torrent downloaded
Show comment
audio: 10video: 10
Thanks!
0
SkyMtn58.51K • 17 July 2013, 21:54
torrent downloaded
Show comment
audio: 10video: 10
Good d/l.
Great show.
Thank you.
Don`t forget to seed back.
0
gareth_dance531 • 16 June 2013, 11:46
torrent downloaded
Show comment
audio: 9video: 9
0
zingalvs19.01K • 15 October 2011, 09:10
torrent downloaded
Show comment
audio: 9video: 9
nice copy this is..
thanks.. biggrin
0
anonymous • 07 July 2011, 07:15 Show comment
Watch full HD movies, Download Full Games, Watch Tv series!!! Free Limited time access http://freeofferjunkie.info

User Opinions

zingalvs19.01K, xHASTISx1505, scally20101175, SECRET MIND1048, gareth_dance531, CIPRIANIi307, RcAa228, sosexy128, GhosT1212106, nrz13731 ... And 26 more
Report a bug