Advertising (remove)

Rip Her Up - Krystal Boyd

seeders: 10
leechers: 2
Added on Feb 6, 2013 by ponklay6511 in XXX > Video
Torrent verified. Downloaded 299 times.

Rip Her Up - Krystal Boyd (Size: 431.1 MB)
  RipHerUp_Krystal_Boyd.mp4 431.1 MB
Advertising (remove)

Description

Screens:
http://imgchili.com/show/25177/25177503_ripherup_krystal_boy.jpg
Krystal is one teen cutie with long hair and hot body that is irresistible. This horny guy certainly found her irresistible and he will do whatever it takes to get a taste of her skin. He gets horny when she looks to him in that special way, he grabs a handful of her long hair and pulls her back to him, he knows she likes that.

RipHerUp_Krystal_Boyd.mp4
Format : MPEG-4
Format profile : Base Media / Version 2
Codec ID : mp42
File size : 431 MiB
Duration : 28mn 54s
Overall bit rate mode : Variable
Overall bit rate : 2 085 Kbps
Encoded date : UTC 2012-02-07 22:13:50
Tagged date : UTC 2012-02-07 22:13:50
©TIM : 00:00:00:00

Video
ID : 1
Format : AVC
Format/Info : Advanced Video Codec
Format profile : High@L4.1
Format settings, CABAC : Yes
Format settings, ReFrames : 3 frames
Codec ID : avc1
Codec ID/Info : Advanced Video Coding
Duration : 28mn 54s
Bit rate mode : Constant
Bit rate : 2 000 Kbps
Width : 640 pixels
Height : 360 pixels
Display aspect ratio : 16:9
Frame rate mode : Constant
Frame rate : 50.000 fps
Standard : PAL
Color space : YUV
Chroma subsampling : 4:2:0
Bit depth : 8 bits
Scan type : Progressive
Bits/(Pixel*Frame) : 0.174
Stream size : 410 MiB (95%)
Language : English
Encoded date : UTC 2012-02-07 22:13:50
Tagged date : UTC 2012-02-07 22:13:50
Color primaries : BT.601 PAL
Transfer characteristics : BT.470 System B, BT.470 System G
Matrix coefficients : BT.601

Audio
ID : 2
Format : AAC
Format/Info : Advanced Audio Codec
Format profile : LC
Codec ID : 40
Duration : 28mn 54s
Source duration : 28mn 54s
Bit rate mode : Variable
Bit rate : 93.4 Kbps
Maximum bit rate : 154 Kbps
Channel(s) : 2 channels
Channel positions : Front: L R
Sampling rate : 48.0 KHz
Compression mode : Lossy
Stream size : 19.3 MiB (4%)
Source stream size : 19.3 MiB (4%)
Language : English
Encoded date : UTC 2012-02-07 22:13:50
Tagged date : UTC 2012-02-07 22:13:50

Related Torrents

torrent name size files age seed leech

Sharing Widget


Download torrent
431.1 MB
seeders:10
leechers:2
Rip Her Up - Krystal Boyd

Trackers

tracker name Status checked seeders leechers downloads
udp://tracker.openbittorrent.com:80/announce
active 12 Oct 2014 9 0 10
udp://tracker.istole.it:80/announce
active 12 Oct 2014 10 2 10
udp://tracker.publicbt.com:80/announce
active 12 Oct 2014 8 1 10
udp://9.rarbg.com:2710/announce
active 12 Oct 2014 6 1 299
http://tracker.ex.ua/announce
outdated 10 Sep 2014 - - -
http://exodus.desync.com/announce
blocked 09 Feb 2014 - - -
http://exodus.desync.com:6969/announce
blocked 19 Sep 2013 - - -
http://tracker.coppersurfer.tk:6969/announce
deleted 09 Feb 2014 - - -
udp://fr33domtracker.h33t.com:3310/announce
deleted 19 Sep 2013 - - -
http://www.h33t.com:3310/announce
deleted 06 Feb 2013 - - -
µTorrent compatible trackers list

Locations

name
KickassTorrents
Torrent hash: 9BAE218B008F922AD57EAE8B0CFEFD54A405D4DC

All Comments

audio
0/10
video
0/10
please, leave only comments related to that torrent
or sign-in
0
hamada...x595 • 09 October 2013, 21:48
torrent downloaded
Show comment
thanks ♥
0
zaid.id239 • 29 March 2013, 08:25
torrent downloaded
Show comment
fucking joking

User Opinions

bi0t0xin7493, Rokkup4734, PhiskoSerum4385, uncletaint1738, pepsiku1619, desmon691384, BlackShe3p1097, bhootnath1070, moeed9ben210, dubsaks47 ... And 20 more
pitboss7596763
Report a bug