Red Tails 2012 CAM READNFO XViD AC3-26K

seeders: 5
leechers: 2
Added on Feb 2, 2012 by hail_alpha66113 in Movies
Torrent verified. Downloaded once.

Available in versions: 1080p720pBDRipHDRiPDVDDVDRipCam
Red Tails 2012 CAM READNFO XViD AC3-26K (Size: 1.56 GB)
  HDSceneRG.txt 115 bytes
  Red Tails 2012 CAM READNFO XViD AC3-26K.avi 1.52 GB
  Red Tails 2012 CAM READNFO XViD AC3-26K.nfo 3.37 KB
  Torrent downloaded from Demonoid.me.txt 46 bytes
  att-networks.com.txt 39 bytes
  sample.avi 37.36 MB
  Sceneunderground.org.txt 77 bytes

Description

image

Red Tails 2012 CAM READNFO XViD AC3-26K

Imdb:
http://www.imdb.com/title/tt0485985/

Plot:
A crew of African American pilots in the Tuskegee training program, having faced segregation while 

kept mostly on the ground during World War II, are called into duty under the guidance of Col. A.J. 

Bullard.

Sources:
VIDEO - Hos DVDR iso
AUDIO - Hos DVDR iso

Notes:
READNFO the cam had loadz of movement so cropped out the black borders..
so take it or leave it.. not bad for first cam!

Greetz:
Xtreme 

Encode|FYA|ILLUMANTI|CM8|RX|VISION|HDSCENE|NIGHTMAREZ|xTriLL|DTRG|CRYS|REMIXHD|BIDA|RX|REFILL|INSPiRAL

|SIC|ZOMBIESZ|HOPE|Anonymous|GooN
To all the people who have helped me :P you know who you are

Anything to offer email us @: 26k@hushmail.me

Video
ID : 0
Format : MPEG-4 Visual
Format profile : Advanced Simple@L5
Format settings, BVOP : 2
Format settings, QPel : No
Format settings, GMC : No warppoints
Format settings, Matrix : Default (H.263)
Codec ID : XVID
Codec ID/Hint : XviD
Duration : 1h 57mn
Bit rate : 1 649 Kbps
Width : 720 pixels
Height : 320 pixels
Display aspect ratio : 2.25:1
Frame rate : 25.000 fps
Color space : YUV
Chroma subsampling : 4:2:0
Bit depth : 8 bits
Scan type : Progressive
Compression mode : Lossy
Bits/(Pixel*Frame) : 0.286
Stream size : 1.36 GiB (89%)
Writing library : XviD 63

Audio
ID : 1
Format : AC-3
Format/Info : Audio Coding 3
Mode extension : CM (complete main)
Codec ID : 2000
Duration : 1h 57mn
Bit rate mode : Constant
Bit rate : 192 Kbps
Channel(s) : 2 channels
Channel positions : Front: L R
Sampling rate : 48.0 KHz
Bit depth : 16 bits
Compression mode : Lossy
Stream size : 162 MiB (10%)
Alignment : Aligned on interleaves
Interleave, duration : 32 ms (0.80 video frame)


Screens:
image
image
image
image
image

image
Thank you smallz for banner!

Related Torrents

torrent name size files age seed leech

Sharing Widget


Download torrent
1.56 GB
seeders:5
leechers:2
Red Tails 2012 CAM READNFO XViD AC3-26K

Trackers

tracker name Status checked seeders leechers downloads
udp://tracker.publicbt.com:80/announce
outdated 16 Oct 2013 - - -
http://announce.torrentsmd.com:6969/announce
outdated 16 Oct 2013 - - -
udp://tracker.openbittorrent.com:80/announce
outdated 16 Oct 2013 - - -
http://tracker.torrentbay.to:6969/announce
outdated 02 Dec 2012 - - -
http://inferno.demonoid.me:3414/announce
outdated 18 Nov 2012 - - -
http://secure.pow7.com/announce
outdated 09 May 2012 - - -
udp://tracker.1337x.org:80/announce
outdated 29 Apr 2012 - - -
http://tracker.openbittorrent.com/announce
outdated 29 Apr 2012 - - -
http://cpleft.com:2710/announce
outdated 29 Apr 2012 - - -
http://tracker.ex.ua/announce
outdated 29 Apr 2012 - - -
http://exodus.desync.com:6969/announce
blocked 23 Aug 2012 - - -
http://fr33dom.h33t.com:3310/announce
deleted 17 May 2013 - - -
http://tracker.publicbt.com/announce
deleted 11 Mar 2013 - - -
http://tracker.novalayer.org:6969/announce
pending 29 Apr 2012 0 0 0
µTorrent compatible trackers list

Locations

name
KickassTorrents
ThePirateBay
Limetorrents
Torrent hash: 978856496744913662BA831F4BF0E0FFD24B385A

All Comments

audio
6/10
video
6/10
please, leave only comments related to that torrent
or sign-in
0
AnnKynaston468 • 19 May 2012, 16:59
torrent downloaded
Show comment
audio: 8video: 7
0
stiffler13187 • 10 May 2012, 14:52
torrent downloaded
Show comment
audio: 6video: 6
0
MigetMaster2687 • 06 May 2012, 01:45
torrent downloaded
Show comment
good quality for a cam
0
Tautoko110 • 05 May 2012, 04:41
torrent downloaded
Show comment
audio: 6video: 6
ThanX maan good attempt!!
Just wondering why with all the leaps and bounds we have had in technology such as High Definition video cameras, our internet providers have even come a long way from the days of dial-up speed to the phenomenal speed we enjoy today, yet, we still can't seem to record and up-load HD or even just High Quality audio/video.
Just saying
0
kidongskidong345 • 30 April 2012, 19:53
torrent downloaded
Show comment
audio: 7video: 7
nice, watchable
0
tdub4034167 • 26 April 2012, 03:58
torrent downloaded
Show comment
audio: 5video: 3
0
adrian78463 • 24 April 2012, 17:59
torrent downloaded
Show comment
audio: 5video: 5
0
anonymous • 22 April 2012, 03:56 Show comment
audio: 7video: 5
Watchable ... kinda. Video has a steady ripple from right to left and is blurry, yet discernable. Audio is fine (save the person using the CAm sniffing like he's got a cold).
0
KiNGDOM_RG48 • 19 April 2012, 19:12
torrent downloaded
Show comment
audio: 7video: 7
Thanks! Great Job! :)
Show More

User Opinions

Phoenix675593, EDMoney5583, mtzkiller1039, sil112501, dmack69471, AnnKynaston468, adrian78463, Paradice267, glennhawaii264, 1sean153 ... And 45 more
clay011176, mjsam1007, doreal123689, mouse22333, Pryncess201, j.johnson.48168, jmathis126, RAYMOND-NRG108, riaanpowell55, Nitecrawler_Ent.51 ... And 3 more
Report a bug