Red Tails 2012 CAM READNFO H264 - Silmarillion

seeders: 0
leechers: 15
Added on Feb 3, 2012 by Silmarillion242.47K in Movies
Torrent verified. Downloaded 0 times.

Available in versions: 1080p720pBDRipHDRiPDVDDVDRipCam
Red Tails 2012 CAM READNFO H264 - Silmarillion (Size: 1.37 GB)
  Red Tails 2012 CAM READNFO H264 - Silmarillion.mp4 1.37 GB
  red-tails-movie.jpg 282.26 KB
  NFO.nfo 2.26 KB

Description

image

Plot: A crew of African American pilots in the Tuskegee training program, having faced segregation while kept mostly on the ground during World War II, are called into duty under the guidance of Col. A.J. Bullard.


Director: Anthony Hemingway
Writers: John Ridley (story), John Ridley (screenplay)
Stars:Cuba Gooding Jr., Gerald McRaney and David Oyelowo


http://www.imdb.com/title/tt0485985/


Format : MPEG-4
Format profile : Base Media
Codec ID : isom
File size : 1.37 GiB
Duration : 1h 57mn
Overall bit rate : 1 666 Kbps
Encoded date : UTC 2012-02-03 12:55:41
Tagged date : UTC 2012-02-03 12:55:41
Writing application : Lavf51.12.1

Video
ID : 1
Format : AVC
Format/Info : Advanced Video Codec
Format profile : Baseline@L1.3
Format settings, CABAC : No
Format settings, ReFrames : 1 frame
Codec ID : avc1
Codec ID/Info : Advanced Video Coding
Duration : 1h 57mn
Bit rate mode : Variable
Bit rate : 1 603 Kbps
Width : 720 pixels
Height : 304 pixels
Display aspect ratio : 2.35:1
Frame rate mode : Constant
Frame rate : 25.000 fps
Resolution : 24 bits
Colorimetry : 4:2:0
Scan type : Progressive
Bits/(Pixel*Frame) : 0.293
Stream size : 1.32 GiB (96%)
Encoded date : UTC 2012-02-03 12:55:41
Tagged date : UTC 2012-02-03 12:55:41

Audio
ID : 2
Format : AAC
Format/Info : Advanced Audio Codec
Format version : Version 4
Format profile : LC
Format settings, SBR : No
Codec ID : 40
Duration : 1h 57mn
Bit rate mode : Variable
Bit rate : 59.0 Kbps
Channel(s) : 2 channels
Channel positions : L R
Sampling rate : 44.1 KHz
Resolution : 16 bits
Stream size : 49.7 MiB (4%)
Encoded date : UTC 2012-02-03 12:55:41
Tagged date : UTC 2012-02-03 12:55:41



image
image
image
image
image
image

Sharing Widget


Download torrent
1.37 GB
seeders:0
leechers:15
Red Tails 2012 CAM READNFO H264 - Silmarillion

Trackers

tracker name Status checked seeders leechers downloads
http://10.rarbg.com/announce
private 09 May 2012 - - -
http://pow7.com/announce
outdated 09 May 2012 - - -
udp://tracker.1337x.org:80/announce
outdated 03 Feb 2012 - - -
udp://tracker.openbittorrent.com:80/announce
outdated 03 Feb 2012 - - -
http://tracker.openbittorrent.com/announce
outdated 03 Feb 2012 - - -
http://tracker.istole.it/announce
outdated 03 Feb 2012 - - -
udp://tracker.publicbt.com:80/announce
outdated 03 Feb 2012 - - -
udp://tracker.istole.it:80/announce
outdated 03 Feb 2012 - - -
http://tracker.publicbt.com/announce
deleted 03 Feb 2012 - - -
http://tracker.novalayer.org:6969/announce
pending 03 Feb 2012 0 0 0
ĀµTorrent compatible trackers list

Locations

name
KickassTorrents
ExtraTorrent
Torrent hash: 126302546351757424E1114B964EA5F4921E4CAB

All Comments

audio
0/10
video
0/10
please, leave only comments related to that torrent
or sign-in
Report a bug