Raw Deal (1986)720p BDRip In Hindi6chBy !!!Hiren.mkv

seeders: 0
leechers: 0
Added on Feb 19, 2012 in Movies
Downloaded 0 times.

Summary:
A former FBI agent turned small town sheriff agrees to help the FBI chief infiltrate the Chicago mafia when the FBI chief's son is killed by the Chicago Mafia.
Submitted by thePiratePimp47.61K
report summary
Available in versions: 1080p720pHDRiPDVDDVDRip
Raw Deal (1986)720p BDRip In Hindi6chBy !!!Hiren.mkv (Size: 905.84 MB)
  Raw Deal (1986)720p BDRip In [Hindi6ch]By !!!Hiren.mkv 905.84 MB

Description



Raw Deal (1986)720p BDRip In[Hindi6ch-Eng2ch]By !!!Hiren


Mark Kaminsky is kicked out of the FBI for his rough treatment of a suspect. He winds up as the sheriff of a small town in North Carolina. FBI Chief Harry Shannon, whose son has been killed by a mobster named Patrovina, enlists Kaminsky in a personal vendetta with a promise of reinstatement into the FBI if Patrovina is taken down. To accomplish this, Kaminsky must go undercover and join Patrovina\'s gang.





Arnold Schwarzenegger ... Mark Kaminsky aka Joseph P. Brenner
Kathryn Harrold ... Monique
Darren McGavin ... Harry Shannon
Sam Wanamaker ... Luigi Patrovita
Paul Shenar ... Paulo Rocca
Steven Hill ... Martin Lamanski
Joe Regalbuto ... Marvin Baxter
Robert Davi ... Max Keller
Ed Lauter ... Baker
Mordecai Lawner ... Marcellino
Blanche Baker ... Amy Kaminsky
Louise Robey ... Lamanski\'s Girl (as Robey)
Victor Argo ... Dangerous Man
George P. Wilbur ... Killer #1
Denver Mattson ... Killer #2

Director: John Irvin
Writers: Luciano Vincenzoni (story), Sergio Donati (story)
Stars: Arnold Schwarzenegger, Kathryn Harrold and Darren McGavin
Genre: Action | Adventure | Thriller
Language:[Hindi5ch Dollby Sround -English2ch]
Format :Color, Dubbed,Widescreen
Release Date :6 June 1986
Run Time :01H:41M:22S











Video
Video
ID : 1
Format : AVC
Format/Info : Advanced Video Codec
Format profile : High@L4.1
Format settings, CABAC : Yes
Format settings, ReFrames : 8 frames
Muxing mode : Header stripping
Codec ID : V_MPEG4/ISO/AVC
Duration : 1h 41mn
Bit rate : 769 Kbps
Width : 1 280 pixels
Height : 544 pixels
Display aspect ratio : 2.35:1
Frame rate : 25.000 fps
Original frame rate : 24.000 fps
Color space : YUV
Chroma subsampling : 4:2:0
Bit depth : 8 bits
Scan type : Progressive
Bits/(Pixel*Frame) : 0.044
Stream size : 563 MiB (62%)
Title : !!!Hiren
Writing library : x264 core 98 r1649
Title : Hiren
Team : Gpsoft Hdmovies






Audio
ID : 2
Format : AC-3
Format/Info : Audio Coding 3
Mode extension : CM (complete main)
Muxing mode : Header stripping
Codec ID : A_AC3
Duration : 1h 41mn
Bit rate mode : Constant
Bit rate : 448 Kbps
Channel(s) : 6 channels
Channel positions : Front: L C R, Side: L R, LFE
Sampling rate : 48.0 KHz
Bit depth : 16 bits
Compression mode : Lossy
Delay relative to video : 2ms
Stream size : 325 MiB (36%)
Title : !!!Hiren
Language : Hindi
Default : Yes
Forced : No









http://www.imdb.com/title/tt0091828/







http://www.facebook.com/groups/275932405751640/

http://www.mediafire.com/?csf2nuwdq3oqz4

Sharing Widget


Download torrent
905.84 MB
seeders:0
leechers:0
Raw Deal (1986)720p BDRip In Hindi6chBy !!!Hiren.mkv

Trackers

tracker name Status checked seeders leechers downloads
udp://tracker.publicbt.com:80/announce
active 16 Oct 2014 0 0 0
udp://tracker.openbittorrent.com:80/announce
active 16 Oct 2014 0 0 0
udp://9.rarbg.com:2710/announce
active 16 Oct 2014 0 0 0
http://tracker.torrentbay.to:6969/announce
outdated 02 Dec 2012 - - -
http://10.rarbg.com/announce
private 02 Dec 2012 - - -
http://pow7.com/announce
outdated 02 Dec 2012 - - -
http://t1.pow7.com/announce
outdated 02 Dec 2012 - - -
http://tracker.openbittorrent.com/announce
outdated 02 Dec 2012 - - -
udp://tracker.1337x.org:80/announce
outdated 02 Dec 2012 - - -
http://exodus.desync.com:6969/announce
blocked 02 Dec 2012 - - -
http://tracker.ilibr.org/announce
blocked 19 Feb 2012 - - -
http://fr33dom.h33t.com:3310/announce
deleted 20 May 2013 - - -
http://tracker.publicbt.com/announce
deleted 11 Mar 2013 - - -
ยตTorrent compatible trackers list

Locations

name
ExtraTorrent
Torrent hash: 1feba521e52b00f1d54f1c25a15199a7cadf7a62

All Comments

audio
0/10
video
0/10
please, leave only comments related to that torrent
or sign-in

User Opinions

Report a bug