Prometheus [2012] 720p BRRip x264 [Dual Audio] 6Ch [Hindi+English] by K@rtik [ExD Exclusive]

seeders: 2
leechers: 1
Added on Sep 13, 2012 by nehakartik2193 in Movies > Highres Movies
Torrent verified. Downloaded 10 times.

Prometheus [2012] 720p BRRip x264 [Dual Audio] 6Ch [Hindi+English] by K@rtik [ExD Exclusive] (Size: 1.47 GB)
  Sample
  Prometheus.[2012].720p.BRRip.x264.[Dual Audio].6Ch.[Hindi+English].by K@rtik [ExD Exclusive].mkv 1.46 GB
  Cover.jpg 369.23 KB
  Prometheus.[2012].720p.BRRip.x264.[Dual Audio].6Ch.[Hindi+English].by K@rtik [ExD Exclusive].srt 92.85 KB

Description

image


image


image


image
image
image
image
image
image
image
image
image
image
image


image


[font="Book Antiqua">Rip Information[/font]

Format : Matroska
Format version : Version 2
File size : 1.46 GiB
Duration : 1h 58mn
Overall bit rate : 1 761 Kbps
Movie name : Prometheus.[2012].720p.BRRip.x264.[Dual Audio].6Ch.[Hindi+English].by K@rtik [ExD Exclusive]


[font="Book Antiqua">Video[/font]

Format : AVC
Format/Info : Advanced Video Codec
Format profile : High@L3.1
Format settings, CABAC : Yes
Format settings, ReFrames : 5 frames
Muxing mode : Header stripping
Codec ID : V_MPEG4/ISO/AVC
Duration : 1h 58mn
Bit rate : 928 Kbps
Width : 1 280 pixels
Height : 520 pixels
Display aspect ratio : 2.462
Frame rate : 25.000 fps
Color space : YUV
Chroma subsampling : 4:2:0
Bit depth : 8 bits
Scan type : Progressive
Bits/(Pixel*Frame) : 0.056
Stream size : 759 MiB (51%)
Title : K@rtik
Writing library : x264 core 125 r2200 999b7


[font="Book Antiqua">Audio 1[/font]

Format : AC-3
Format/Info : Audio Coding 3
Mode extension : CM (complete main)
Format settings, Endianness : Big
Muxing mode : Header stripping
Codec ID : A_AC3
Duration : 1h 58mn
Bit rate mode : Constant
Bit rate : 448 Kbps
Channel(s) : 6 channels
Channel positions : Front: L C R, Side: L R, LFE
Sampling rate : 48.0 KHz
Bit depth : 16 bits
Compression mode : Lossy
Delay relative to video : 1s 12ms
Stream size : 380 MiB (25%)
Title : K@rtik
Language : English


[font="Book Antiqua">Audio 2[/font]

Format : AC-3
Format/Info : Audio Coding 3
Mode extension : CM (complete main)
Format settings, Endianness : Big
Muxing mode : Header stripping
Codec ID : A_AC3
Duration : 1h 58mn
Bit rate mode : Constant
Bit rate : 384 Kbps
Channel(s) : 6 channels
Channel positions : Front: L C R, Side: L R, LFE
Sampling rate : 48.0 KHz
Bit depth : 16 bits
Compression mode : Lossy
Delay relative to video : 600ms
Stream size : 326 MiB (22%)
Title : K@rtik
Language : Hindi
Default : Yes


image


[font="Book Antiqua">==Team EXD Exclusive==[/font]


[font="Book Antiqua">Thanks For Shopie Hindi Audio[/font]

[font="Book Antiqua">Sample In Torrent[/font]


image
image
image

Related Torrents

torrent name size files age seed leech

Sharing Widget


Download torrent
1.47 GB
seeders:2
leechers:1
Prometheus [2012] 720p BRRip x264 [Dual Audio] 6Ch [Hindi+English] by K@rtik [ExD Exclusive]

Trackers

tracker name Status checked seeders leechers downloads
udp://tracker.openbittorrent.com:80/announce
outdated 24 Dec 2013 - - -
udp://tracker.istole.it:80/announce
outdated 24 Dec 2013 - - -
udp://tracker.publicbt.com:80/announce
outdated 24 Dec 2013 - - -
udp://tracker.1337x.org:80/announce
outdated 10 Mar 2013 - - -
http://exodus.desync.com:6969/announce
blocked 10 Mar 2013 - - -
udp://tracker.ccc.de:80/announce
deleted 10 Mar 2013 - - -
udp://fr33domtracker.h33t.com:3310/announce
deleted 10 Mar 2013 - - -
µTorrent compatible trackers list

Locations

name
KickassTorrents
Torrent hash: 44AE1F2E260E93C7D45746B904BBA44388C4BF62

Top Comments

4
S1234I23 • 14 Sep 2012, 18:08
torrent downloaded
audio: 10video: 10
I think it's a DVD quality print but U Unscaled it, but at the end amazing Audio (Both) and Video quality. Keep it up K@artik

All Comments

audio
6/10
video
6/10
please, leave only comments related to that torrent
or sign-in
0
anonymous • 07 November 2013, 06:44 Show comment
Quality worse compared to size of file, plus the subtitles don't match and can't be found anywhere else either.
0
SobanSA103 • 24 October 2013, 15:14 Show comment
audio: 10video: 10
biggrin
0
violentstorm954 • 04 May 2013, 10:47
torrent downloaded
Show comment
audio: 7video: 8
thanks..
0
anonymous • 15 January 2013, 02:49 Show comment
MKV
0
AstralWarrior621 • 03 January 2013, 17:35
torrent downloaded
Show comment
audio: 10video: 10
Great movie
Excellent Quality
Fast download
Thank you.
0
Shuvo67837472 • 09 December 2012, 12:40
torrent downloaded
Show comment
audio: 9video: 6
0
pei1155 • 20 November 2012, 09:09 Show comment
DO NOT DOWNLOAD. I got a Cease And Desist letter over this torrent. It is being monitored by anti-piracy groups!
0
GoofyBoots860 • 23 October 2012, 22:32
torrent downloaded
Show comment
audio: 9video: 9
Great Upload
0
Awes♥meBoy13051 • 21 October 2012, 11:58
torrent downloaded
Show comment
audio: 9video: 9
good,
thanks uploader for sharing.
Show More

User Opinions

Angerpot2635, hur061126, craiggibbo859, reni_texas611, pmanymen1028525, quadman77507, timfs.smile424, ptyred218, niktrik154, SkY1980SkY45 ... And 103 more
jaisoncruz2075, bhootnath1063, Poker_King613, pranaykumarpaine324, billymartin2280, Neeraj.singhal90246, aiyazmh86, Bruce3259, rak945, Pan_Witold23 ... And 4 more
Report a bug