Project Alf

seeders: 1
leechers: 0
Added on Jun 15, 2009 in Other > Unsorted
Torrent verified. Downloaded 10 times.

Project Alf (Size: 698.45 MB)
  Alf - Season 2 (Dutch subtitles).zip 254.32 KB
  Alf - Season 3 (Dutch subtitles).zip 271.81 KB
  Alf - Season 4 ~Dutch subtitles~.zip 256.8 KB
  Alf- Season 1 (Dutch subtitles).zip 278.9 KB
  Project ALF - DVDrip (Comedy, Sci-Fi, Family 1996 XviD)--Dutch subtitles--.rar 42.69 KB
  Project ALF - DVDrip (Comedy, Sci-Fi, Family 1996 XviD).avi 697.37 MB

Description



General

Complete name : C:\Documents and Settings\Ik\Bureaublad\Project Alf\Project ALF - DVDrip (Comedy, Sci-Fi, Family 1996 XviD).avi

Format : AVI

Format/Info : Audio Video Interleave

File size : 697 MiB

Duration : 1h 31mn

Overall bit rate : 1 061 Kbps

Writing application : FairUse Wizard - http://fairusewizard.com
/>
Writing library : The best and REALLY easy backup tool



Video

Format : MPEG-4 Visual

Format profile : Streaming Video@L1

Format settings, BVOP : Yes

Format settings, QPel : No

Format settings, GMC : No warppoints

Format settings, Matrix : Default (H.263)

Muxing mode : Packed bitstream

Codec ID : XVID

Codec ID/Hint : XviD

Duration : 1h 31mn

Bit rate : 860 Kbps

Width : 528 pixels

Height : 384 pixels

Display aspect ratio : 1.375

Frame rate : 23.976 fps

Resolution : 24 bits

Colorimetry : 4:2:0

Scan type : Progressive

Bits/(Pixel*Frame) : 0.177

Stream size : 565 MiB (81%)

Writing library : XviD 1.1.0 (UTC 2005-11-22)



Audio

Format : AC-3

Format/Info : Audio Coding 3

Codec ID : 2000

Duration : 1h 31mn

Bit rate mode : Constant

Bit rate : 192 Kbps

Channel(s) : 2 channels

Channel positions : L R

Sampling rate : 48.0 KHz

Stream size : 126 MiB (18%)

Alignment : Split accross interleaves

Interleave, duration : 42 ms (1.00 video frame)

Interleave, preload duration : 500 ms

--------------------------------------------------------------------

Bijgevoegd: Project: Alf nederlandse ondertiteling (winrar)



Bonus:



Verbeterde ondertiteling: ALF seizoenen 1-4 (zip)

Ondertitelingen van deze seizoenen lopen sync bij mijn eerdr geplaatste torrents.

Ben tot mijn verbazing nogal wat gebrekkigheden tegengekomen en heb ze allemaal zodoende hersteld. Sorry voor het ongemak.

Related Torrents

torrent name size files age seed leech

Sharing Widget


Download torrent
698.45 MB
seeders:1
leechers:0
Project Alf

Trackers

tracker name Status checked seeders leechers downloads
http://tracker.ccc.de/announce
outdated 16 Oct 2012 - - -
http://bt1.the9.com:6969/announce
outdated 16 Nov 2010 - - -
http://tracker.openbittorrent.com/announce
outdated 11 Jun 2010 - - -
http://denis.stalker.h3q.com/announce
outdated 11 Jun 2010 - - -
ĀµTorrent compatible trackers list

Locations

name
Mininova
ThePirateBay
ExtraTorrent
SumoTorrent
Torrentzap
Torrent hash: 0e4c4d1dffbb31a252dca16b9fe4603f36544ccb

All Comments

please, leave only comments related to that torrent
or sign-in
0
lostmyticket13.61K • 09 June 2014, 03:20
torrent downloaded
Show comment
RAR file did not open

User Opinions

Report a bug