Predators 2010 DVDrip English Klam

seeders: 6
leechers: 0
Added on Aug 22, 2011 in Movies
Torrent verified. Downloaded 10 times.

Predators 2010 DVDrip English Klam (Size: 1.31 GB)
  Cover
  Predators.avi 1.31 GB
  www.Film-Test.nl.jpg 35.44 KB
  New Dutch Site.txt 117 bytes
  Torrent downloaded from Demonoid.com.txt 47 bytes

Description

With: Adrien Brody, Alice Braga and Topher Grace

De film speelt zich af op de jungle-achtige thuisplaneet van de Predators. Op deze planeet huist ook een 'Mega-Predator' die elk jaar een groep van de gevaarlijkste individuen van de planeet aarde ontvoert, om ze vervolgens als prooi vrij te laten in de dodelijke jungle van de Predator-thuisplaneet. Royce (Adrien Brody) is de leider van een groepje huurlingen, dat onder andere bestaat uit een taaie vrouwelijke moordenaar, een man die totaal niet bang is om te sterven en een voormalige Russisch geheimagent. Samen moeten ze zien te overleven in de wildernis terwijl ze wanhopig proberen uit te vinden wat er met hen is gebeurd en door wie of wat ze worden opgejaagd...

A group of elite warriors are hunted by members of a merciless alien race known as Predators.

------------------ Dutch Friends ------------------
You can find my Friends at: http://www.Film-Test.nl
------ They got my dutchs subs ---- and more ------

General:

Complete name : Predators\Predators.avi
Format : AVI
Format/Info : Audio Video Interleave
File size : 1.31 GiB
Duration : 1h 41mn
Overall bit rate : 1 849 Kbps

Video:

Format : MPEG-4 Visual
Format profile : Simple@L3
Format settings, BVOP : No
Format settings, QPel : No
Format settings, GMC : No warppoints
Format settings, Matrix : Default (H.263)
Codec ID : XVID
Codec ID/Hint : XviD
Duration : 1h 41mn
Bit rate : 1 390 Kbps
Width : 720 pixels
Height : 304 pixels
Display aspect ratio : 2.35:1
Frame rate : 25.000 fps
Color space : YUV
Chroma subsampling : 4:2:0
Bit depth : 8 bits
Scan type : Progressive
Bits/(Pixel*Frame) : 0.254
Stream size : 1 008 MiB (75%)
Writing library : XviD 1.1.2 (UTC 2006-11-01)

Audio:

Format : AC-3
Format/Info : Audio Coding 3
Mode extension : CM (complete main)
Codec ID : 2000
Duration : 1h 41mn
Bit rate mode : Constant
Bit rate : 448 Kbps
Channel(s) : 6 channels
Channel positions : Front: L C R, Side: L R, LFE
Sampling rate : 48.0 KHz
Bit depth : 16 bits
Stream size : 325 MiB (24%)
Alignment : Aligned on interleaves
Interleave, duration : 32 ms (0.80 video frame)
Interleave, preload duration : 128 ms

Sharing Widget


Download torrent
1.31 GB
seeders:6
leechers:0
Predators 2010 DVDrip English Klam

Trackers

tracker name Status checked seeders leechers downloads
udp://tracker.openbittorrent.com:80/announce
outdated 06 Jun 2014 - - -
udp://tracker.publicbt.com:80/announce
outdated 06 Jun 2014 - - -
http://tracker.torrentbay.to:6969/announce
outdated 05 Aug 2013 - - -
http://tracker.openbittorrent.com/announce
outdated 05 Aug 2013 - - -
http://10.rarbg.com/announce
private 05 Aug 2013 - - -
http://pow7.com/announce
outdated 05 Aug 2013 - - -
udp://tracker.ilibr.org:6969/announce
blocked 22 Aug 2011 - - -
http://tracker.publicbt.com/announce
deleted 05 Aug 2013 - - -
http://torrentbay.to:6969/announce
error 22 Aug 2011 - - -
ĀµTorrent compatible trackers list

Locations

name
ThePirateBay
Torrent hash: 53af8851572a4c12de956f8da23ae274ded0e093

All Comments

audio
9/10
video
9/10
please, leave only comments related to that torrent
or sign-in
0
pappubeta23 • 16 April 2014, 10:37
torrent downloaded
Show comment
audio: 9video: 10
very good
0
rj.raj99458 • 10 December 2013, 05:48
torrent downloaded
Show comment
great quality... thanks.
0
Dragonator1039 • 31 October 2013, 11:52
torrent downloaded
Show comment
audio: 8video: 9
Thanks for the movie dudes good copy...... rock on
0
dinuka001463 • 23 October 2013, 14:18
torrent downloaded
Show comment
audio: 9video: 9
thanx
0
reveal07459 • 06 September 2013, 23:37
torrent downloaded
Show comment
good audio, good video, good movie!
0
maoz19951135 • 01 September 2013, 18:25
torrent downloaded
Show comment
audio: 8video: 8
Thakns, good quality.
0
SohanFX3640 • 27 November 2012, 12:22
torrent downloaded
Show comment
audio: 9video: 8
THanks
0
von.hagen1439 • 10 September 2012, 12:16
torrent downloaded
Show comment
audio: 10video: 10
0
BASILISRED10 • 03 September 2012, 08:47
torrent downloaded
Show comment
THANX
Show More

User Opinions

EDMoney5692, LifeCK1491, von.hagen1439, toxictoadz1243, Cruzn871038, matyk669, efini93571, EagleSoar526, adamG382, ciumego300 ... And 116 more
EmiineeM485, jt3333427, billaweed28
Report a bug