Pitch Black (2000) (RETAIL)(ENG+GER+NL SUBS) Hornigold TBS

seeders: 4
leechers: 1
Added on Dec 13, 2010 by hornigold2041 in Movies
Torrent verified. Downloaded 549 times.

Pitch Black (2000) (RETAIL)(ENG+GER+NL SUBS) Hornigold TBS (Size: 4.37 GB)
  Pitch Black
  PITCH_BLACK.jpg 216.39 KB
  Pitch Black info.nfo 3.53 KB

Description

For English, please scroll down!



************************************************************

Pitch Black (2000)



image



Australië / Verenigde Staten, Actie / Science-Fiction, 109 minuten / 112 minuten (unrated version). Geregisseerd door David Twohy. Met Vin Diesel, Radha Mitchell en Cole Hauser.



Getroffen door een meteorietenregen moet een transportschip, met aan boord de levensgevaarlijke gevangene Riddick, een noodlanding maken op een afgelegen en levenloze planeet. Wanneer echter een eclips de planeet in volledige duisternis hult worden de overlevenden van de crash geconfronteerd met de monsterlijke bewoners van de planeet die slechts één vijand kennen: licht. Hun enige redding blijkt Riddick te zijn, wiens bijzondere gezichtsvermogen hem in staat stelt in het pikkedonker te kunnen zien. Maar leg je je lot in handen van een moordenaar?



Taal: Engels & Duits (5.1)

Ondertitelingen: Engels, Duits en Nederlands.

Categorie : Beeld

Formaat : DVD5

Bron : Retail

Genre : Actie/ Science-Fiction

Weblink : http://www.moviemeter.nl/film/46
/>


******************************

image



Australia / USA, Action / Science-Fiction, 109 minutes / 112 minutes (unrated version). Directe by David Twohy. With Vin Diesel, Radha Mitchell and Cole Hauser.



Dangerous criminal Richard B. Riddick is being transported to prison in a cargo spacecraft. When the spaceship is damaged by comet debris and makes an emergency crash landing on an empty desert planet, Riddick escapes. However, when predatory flying alien creatures begin attacking the survivors, Riddick joins forces with the crew to develop a plan to escape the planet.



Language: English and German (5.1)

Subtitles: English, German and Dutch

Category : Movie

Format : DVD5

Source : Retail

Genre : Action/ Science-Fiction

Weblink :
http://www.imdb.com/title/tt0134847/
/>


image



Video and Audio information:

******************************

Video

ID                               : 224 (0xE0)

Format                           : MPEG Video

Format version                   : Version 2

Format profile                   : Main@Main

Format settings, BVOP            : Yes

Format settings, Matrix          : Default

Duration                         : 28mn 30s

Bit rate mode                    : Variable

Bit rate                         : 4 538 Kbps

Nominal bit rate                 : 9 800 Kbps

Width                            : 720 pixels

Height                           : 576 pixels

Display aspect ratio             : 16:9

Frame rate                       : 25.000 fps

Standard                         : PAL

Color space                      : YUV

Chroma subsampling               : 4:2:0

Bit depth                        : 8 bits

Bits/(Pixel*Frame)               : 0.438

Stream size                      : 925 MiB (90%)



Audio

ID                               : 128 (0x80)

Format                           : AC-3

Format/Info                      : Audio Coding 3

Mode extension                   : CM (complete main)

Duration                         : 28mn 30s

Bit rate mode                    : Constant

Bit rate                         : 384 Kbps

Channel(s)                       : 6 channels

Channel positions                : Front: L C R, Side: L R, LFE

Sampling rate                    : 48.0 KHz

Bit depth                        : 16 bits

Stream size                      : 78.3 MiB (8%)



******************************

Hornigold TBS

Sharing Widget


Download torrent
4.37 GB
seeders:4
leechers:1
Pitch Black (2000) (RETAIL)(ENG+GER+NL SUBS) Hornigold TBS

Trackers

tracker name Status checked seeders leechers downloads
http://10.rarbg.com/announce
private 09 May 2012 - - -
http://pow7.com/announce
outdated 09 May 2012 - - -
udp://tracker.publicbt.com:80/announce
outdated 02 Nov 2011 - - -
udp://tracker.openbittorrent.com:80/announce
outdated 02 Nov 2011 - - -
http://tracker.openbittorrent.com/announce
outdated 02 Nov 2011 - - -
http://exodus.1337x.org/announce
outdated 02 Nov 2011 - - -
http://genesis.1337x.org:1337/announce
outdated 02 Nov 2011 - - -
http://nemesis.1337x.org/announce
outdated 02 Nov 2011 - - -
http://fr33dom.h33t.com:3310/announce
deleted 09 May 2013 - - -
http://tracker.publicbt.com/announce
deleted 11 Mar 2013 - - -
µTorrent compatible trackers list

Locations

name
KickassTorrents
ExtraTorrent
Limetorrents
Limetorrents
Torrent hash: f13f09ff1161fa0309231f7cfb797eae63d93c5c

All Comments

audio
0/10
video
0/10
please, leave only comments related to that torrent
or sign-in
0
anonymous • 02 September 2012, 11:51 Show comment
THERE IS NOTHING SUCH ENGLISH SUB! WHY PLAYING TRICKS, DUDE?
0
TheBlueDevil37 • 29 June 2012, 13:11
torrent downloaded
Show comment
thank you for the upload
0
anonymous • 05 January 2012, 14:27 Show comment
WHERE IN HELL IS THE ANNOUNCED ENGLISH SUBTITLE?

User Opinions

Report a bug