Piratas del Caribe 4 (Pirates of the Caribbean: On Stranger Tides) 2011 BDrip 1080p x264 AC3 Spa (es-Es) DTS Eng

seeders: 1
leechers: 1
Added on Mar 30, 2013 by Flauros9573 in Movies > Highres Movies
Torrent verified. Downloaded 10 times.

Piratas del Caribe 4 (Pirates of the Caribbean: On Stranger Tides) 2011 BDrip 1080p x264 AC3 Spa... (Size: 12.25 GB)
  Piratas del Caribe en mareas misteriosas.mkv 12.25 GB

Description

Piratas del Caribe: En mareas misteriosas
Pirates of the Caribbean: On Stranger Tides


Audios
Castellano (español de España)
English (original version)

General
Format : Matroska
Format version : Version 2
File size : 12.2 GiB
Duration : 2 h 16 min
Overall bit rate : 12.9 Mb/s

Video
ID : 1
Format : AVC
Format/Info : Advanced Video Codec
Format profile : High@L4.1
Format settings, CABAC : Yes
Format settings, ReFrames : 5 frames
Codec ID : V_MPEG4/ISO/AVC
Duration : 2 h 16 min
Bit rate : 11.0 Mb/s
Width : 1920 pixels
Height : 800 pixels
Display aspect ratio : 2.40:1
Frame rate mode : Constant
Frame rate : 23.976 FPS
Color space : YUV
Chroma subsampling : 4:2:0
Bit depth : 8 bits
Scan type : Progressive
Bits/(Pixel*Frame) : 0.298
Stream size : 10.2 GiB (83%)
Writing library : x264 core 116 r2044

Audio #1
ID : 2
Format : AC-3
Format/Info : Audio Coding 3
Mode extension : CM (complete main)
Format settings, Endianness : Big
Muxing mode : Header stripping
Codec ID : A_AC3
Duration : 2 h 16 min
Bit rate mode : Constant
Bit rate : 384 kb/s
Channel(s) : 6 channels
Channel positions : Front: L C R, Side: L R, LFE
Sampling rate : 48.0 kHz
Bit depth : 16 bits
Compression mode : Lossy
Stream size : 375 MiB (3%)
Language : Spanish

Audio #2
ID : 3
Format : DTS
Format/Info : Digital Theater Systems
Mode : 16
Format settings, Endianness : Big
Muxing mode : Header stripping
Codec ID : A_DTS
Duration : 2 h 16 min
Bit rate mode : Constant
Bit rate : 1509 kb/s
Channel(s) : 6 channels
Channel positions : Front: L C R, Side: L R, LFE
Sampling rate : 48.0 kHz
Bit depth : 24 bits
Compression mode : Lossy
Stream size : 1.44 GiB (12%)
Language : English

Text
ID : 4
Format : UTF-8
Codec ID : S_TEXT/UTF8
Codec ID/Info : UTF-8 Plain Text
Title : Mínimos
Language : Spanish
Default : Yes
Forced : Yes

¡Disfruta y siembra!
Enjoy and seed!

image
image
image

Related Torrents

torrent name size files age seed leech

Sharing Widget


Download torrent
12.25 GB
seeders:1
leechers:1
Piratas del Caribe 4 (Pirates of the Caribbean: On Stranger Tides) 2011 BDrip 1080p x264 AC3 Spa (es-Es) DTS Eng

Trackers

tracker name Status checked seeders leechers downloads
udp://open.demonii.com:1337/announce
active 24 Sep 2014 0 1 1
udp://tracker.openbittorrent.com:80/announce
active 24 Sep 2014 0 1 10
udp://tracker.istole.it:80/announce
active 24 Sep 2014 1 1 10
udp://tracker.publicbt.com:80/announce
active 24 Sep 2014 0 0 10
µTorrent compatible trackers list

Locations

name
KickassTorrents
Torrent hash: 834EAF74B1AD98CA63087D730F7862CB1954AC4F

Uploader Comments

0
Flauros9573 • 10 Jul 2014, 14:38
audio: 9video: 10
One year seeding with more than 62 of share ratio and still I'm the only seeder...

All Comments

audio
9/10
video
10/10
please, leave only comments related to that torrent
or sign-in
0
Flauros9573 • 10 July 2014, 14:38
Show comment
audio: 9video: 10
One year seeding with more than 62 of share ratio and still I'm the only seeder...

User Opinions

IAMUNITED21.56K, NIHAMMER134
Report a bug