Piranha 3DD 2012 HDRIP XVID DQ1

seeders: 57
leechers: 3
Added on Jun 1, 2012 by Hackullus42215 in Movies
Torrent verified. Downloaded 10 times.

Piranha 3DD 2012 HDRIP XVID DQ1 (Size: 893.74 MB)
  Piranha.3DD.2012.HDRIP.XVID-DQ1.avi 893.74 MB
  Piranha.3DD.2012.HDRIP.XVID-DQ1.nfo 2.9 KB
  Torrent downloaded from AhaShare.com.txt 59 bytes
  Torrent downloaded from Demonoid.me.txt 46 bytes
  Torrent downloaded from extratorrent.com.txt 40 bytes
  Torrent downloaded from Rarbg.com.txt 33 bytes
  torrent downloaded from H33T.com.txt 32 bytes

Description

image

Piranha.3DD.2012.HDRIP.XVID-DQ1

http://www.imdb.com/title/tt1714203/

Plot:
After the events at Lake Victoria, the pre-historic school of blood-thirsty piranhas make their way into a newly opened waterpark.


Video
ID : 0
Format : xvid
Codec ID : xvid
Duration : 1h 22mn
Bit rate : 1 434 Kbps
Width : 720 pixels
Height : 380 pixels
Display aspect ratio : 1.895
Frame rate : 25.000 fps
Bits/(Pixel*Frame) : 0.210
Stream size : 848 MiB (95%)

Audio
ID : 1
Format : MPEG Audio
Format version : Version 2
Format profile : Layer 3
Mode : Joint stereo
Mode extension : MS Stereo
Codec ID : 55
Codec ID/Hint : MP3
Duration : 1h 22mn
Bit rate mode : Constant
Bit rate : 64.0 Kbps
Channel(s) : 2 channels
Sampling rate : 22.05 KHz
Compression mode : Lossy
Stream size : 37.9 MiB (4%)
Alignment : Aligned on interleaves
Interleave, duration : 26 ms (0.65 video frame)
Interleave, preload duration : 522 ms
Writing library : LAME3.98.4

image
image

Related Torrents

torrent name size files age seed leech

Sharing Widget


Download torrent
893.74 MB
seeders:57
leechers:3
Piranha 3DD 2012 HDRIP XVID DQ1

Trackers

tracker name Status checked seeders leechers downloads
udp://tracker.openbittorrent.com:80/announce
active 13 Jul 2014 49 3 10
udp://tracker.publicbt.com:80/announce
active 13 Jul 2014 57 3 10
udp://tracker.istole.it:80/announce
outdated 07 Apr 2014 - - -
udp://tracker.1337x.org:80/announce
outdated 15 Aug 2013 - - -
http://exodus.desync.com:6969/announce
blocked 15 Aug 2013 - - -
udp://fr33domtracker.h33t.com:3310/announce
deleted 15 Aug 2013 - - -
http://fr33dom.h33t.com:3310/announce
deleted 15 Aug 2013 - - -
ĀµTorrent compatible trackers list

Locations

name
KickassTorrents
Torrent hash: DE58ED268E512ACB921AFABF1EBA3EF76ED13799

Top Comments

29
anonymous • 02 Jun 2012, 10:40
does it come with 3dd glasses ?
11
anonymous • 02 Jun 2012, 13:52
no its not it is just ur connection
9
anonymous • 03 Jun 2012, 17:14
dude that is the third comment for this upload, if u want to increase ur rep do it fairly

All Comments

audio
8/10
video
8/10
please, leave only comments related to that torrent
or sign-in
0
slaywee5484 • 19 February 2014, 04:40
torrent downloaded
Show comment
audio: 7video: 7
worst movie eva
0
anonymous • 09 February 2014, 20:43 Show comment
audio: 9video: 9
Great upload thank you, Movie it self laughable still entertaining
0
iFUTE33 • 03 January 2014, 13:23
torrent downloaded
Show comment
Nice!
0
SAG191968 • 23 November 2013, 03:17 Show comment
Best in quality
Worst movie
0
anonymous • 21 November 2013, 18:32 Show comment
is there any sex scene in this movie
0
HopenDarkness68860 • 15 October 2013, 11:57
torrent downloaded
Show comment
audio: 9video: 9
0
Deadkore21 • 19 September 2013, 17:19 Show comment
Good quality, but the movie it's self.. not as good:p. I think the director is little *nuts* in the head with all the boobs.shocked
0
Nevets81071 • 16 September 2013, 12:44
torrent downloaded
Show comment
audio: 8video: 8
Thanks!!!
0
MrSinister9632 • 14 September 2013, 18:39
torrent downloaded
Show comment
why did the black chic die 15mins into the movie?
0
anonymous • 18 September 2013, 18:40 Show comment
Coz ur too stupid
Show More

User Opinions

TeGiiGii4473, Naskal3643, Negenius2799, n2cr8zysht2252, toxictoadz1243, untarock1133, Blane the Blade1034, chatty461001, supermate873, ritvik172 ... And 1087 more
magriyou1068, Digter941, docanas35328, sashank!!325, msdogru296, raja_mohsin_ali242, guaibash232, sedhkhan195, guneshwor_okram113, kutalines52 ... And 95 more
Report a bug