Pink - Just Give Me A Reason (Ft. Nate Ruess) 2013 M4A+MP4 (1080p) x264 [VX] [P2PDL]

seeders: 268
leechers: 56
Added on Feb 12, 2013 by Vitamin_X61352 in Movies > Music videos
Torrent verified. Downloaded 115 times.

Pink - Just Give Me A Reason (Ft. Nate Ruess) 2013 M4A+MP4 (1080p) x264 [VX] [P2PDL] (Size: 41.13 MB)
  P!nk Ft. Nate Ruess - Just Give Me A Reason (1080p) x264 [VX] [P2PDL].mp4 37.27 MB
  P!nk - Just Give Me a Reason.m4a 3.68 MB
  Cover.jpg 177.7 KB
  P!nk Ft. Nate Ruess - Just Give Me A Reason (1080p) x264 [VX] [P2PDL].nfo 9.86 KB
  Torrent downloaded from P2PDL.com.txt 33 bytes

Description

image


Pink - Just Give Me A Reason (Ft. Nate Ruess) 2013 M4A+MP4 (1080p) x264 [VX] [P2PDL]


1080p Full HD MP4 Video
+
128 Kbps/VBR M4A Audio

General
Complete name : P!nk Ft. Nate Ruess - Just Give Me A Reason (1080p) x264 [VX] [P2PDL].mp4
Format : MPEG-4
Format profile : Base Media / Version 2
Codec ID : mp42
File size : 37.3 MiB
Duration : 4mn 2s
Overall bit rate mode : Variable
Overall bit rate : 1 290 Kbps

Video
Format : AVC
Format/Info : Advanced Video Codec
Format profile : High@L4.0
Width : 1 920 pixels
Height : 800 pixels
Display aspect ratio : 2.40:1
Frame rate mode : Variable
Frame rate : 23.976 fps
Stream size : 33.4 MiB (90%)
Writing library : x264 core 129

Audio
ID : 2
Format : AAC
Bit rate mode : Variable
Bit rate : 128 Kbps
Channel(s) : 2 channels
Channel positions : Front: L R
Sampling rate : 48.0 KHz
Stream size : 3.70 MiB (10%)

Subtitles : No


Screens:

image
image

Thumbs:

image

image
------------------------------------------------------------------------

Notes:

* Recommended to use latest version VLC Media Player.
* Install shark007 codecs in case of any kind of problem in playback (For non-VLC Media Player users).
* Alternatively, install Core AVC codecs, the fastest decoder that there is coupled with Community Center Codec Pack and play on Windows Media Player Classic.

Greets to: VYTO, a2zRG, MusiK_KinG, Kuroyukihime, Caveman, Ash968, Neon, TwentyForty, Masta, TorDigger and staff members at ExtraTorrent, TPB, H33T, KAT, 1337x, PublicHD, Ahashare, TorrentMafia, Limetorrents, BTScene, P2PDL, and all others

Encoder Notes: Looking For Early Access To Anything You Can Provide DVDScr, R5, DVDRips, BluRay, Direct Audio, Early Music
Releases, Seedboxes, Links, Dedicated Servers anything u can provide, Advance / Promo CDs/DVDs. If You Got anything to
offer contact me at "prg@hush.com"


image

Related Torrents

torrent name size files age seed leech

Sharing Widget


Download torrent
41.13 MB
seeders:268
leechers:56
Pink - Just Give Me A Reason (Ft. Nate Ruess) 2013 M4A+MP4 (1080p) x264 [VX] [P2PDL]

Trackers

tracker name Status checked seeders leechers downloads
udp://tracker.openbittorrent.com:80/announce
outdated 09 Dec 2013 - - -
udp://tracker.publicbt.com:80/announce
outdated 09 Dec 2013 - - -
udp://tracker.istole.it:80/announce
outdated 29 Sep 2013 - - -
http://tracker.ex.ua/announce
outdated 29 Sep 2013 - - -
udp://fr33domtracker.h33t.com:3310/announce
deleted 29 Sep 2013 - - -
http://p2pdl.com:2710/announce
pending 09 Dec 2013 159 54 115
http://tracker.7ece.co.uk:6969/announce
pending 29 Sep 2013 0 0 0
udp://ipv4.tracker.harry.lu:80/announce
pending 29 Sep 2013 511 124 10
http://local.tracker/announce
pending 29 Sep 2013 0 0 0
http://tracker.yify-torrents.com/announce
pending 29 Sep 2013 461 184 2733
ĀµTorrent compatible trackers list

Locations

name author
KickassTorrents Vitamin_X
Torrent hash: 120AD76789B11BCE2D6005D1C22CCF1507C3021A

All Comments

audio
9/10
video
9/10
please, leave only comments related to that torrent
or sign-in
0
IsHu.1022 • 08 April 2014, 13:34
torrent downloaded
Show comment
audio: 9video: 9
Thanx ! smile
0
sum1_here30172 • 14 March 2014, 20:34
torrent downloaded
Show comment
audio: 10video: 10
thanks
0
TheStrength14009 • 20 February 2014, 15:26
torrent downloaded
Show comment
audio: 10video: 10
0
xPerf3cti0n2539 • 10 January 2014, 06:47 Show comment
audio: 10video: 10
0
Rukin3162 • 15 December 2013, 20:52
torrent downloaded
Show comment
audio: 9video: 9
:DD
0
caedxpro2083 • 11 December 2013, 11:00 Show comment
audio: 9video: 9
Show More

User Opinions

Indi_King2174, Dr_M1831, Loverboy581696, cyber-syntoid1560, jenners1384, Torrent_691253, rabetsy390, Haiya156, swarup_mufc_saha131, Mar1e117 ... And 215 more
Report a bug