Percy Jackson And the Olympians The Lightning Thief 2010 Eng LU

seeders: 5
leechers: 0
Added on Feb 14, 2010 in Movies
Torrent verified. Downloaded 10 times.

Percy Jackson And the Olympians The Lightning Thief 2010 Eng LU (Size: 701.75 MB)
  Percy.Jackson.And.the.Olympians.The.Lightning.Thief.2010.Eng.LU_4.avi 701.75 MB
  Torrent downloaded from Demonoid.com.txt 47 bytes

Description

General
Complete name : Percy.Jackson.And.the.Olympians.The.Lightning.Thief.2010.Eng.LU.avi
Format : AVI
Format/Info : Audio Video Interleave
File size : 702 MiB
Duration : 1h 51mn
Overall bit rate : 883 Kbps
Movie name : Percy Jackson & the Olympians: The Lightning Thief (2010)
Director : ELEKTRI4KA
Writing application : VirtualDubMod 1.5.10.2 (build 2540/release)
Writing library : VirtualDub build 32706/release
Copyright : http://uniongang.ru/

Video
ID : 0
Format : MPEG-4 Visual
Format profile : Advanced Simple@L5
Format settings, BVOP : Yes
Format settings, QPel : No
Format settings, GMC : No warppoints
Format settings, Matrix : Default (H.263)
Codec ID : XVID
Codec ID/Hint : XviD
Duration : 1h 51mn
Bit rate : 745 Kbps
Width : 640 pixels
Height : 272 pixels
Display aspect ratio : 2.35:1
Frame rate : 25.000 fps
Resolution : 8 bits
Colorimetry : 4:2:0
Scan type : Progressive
Bits/(Pixel*Frame) : 0.171
Stream size : 592 MiB (84%)
Writing library : XviD 1.2.1 (UTC 2008-12-04)

Audio
ID : 1
Format : MPEG Audio
Format version : Version 1
Format profile : Layer 3
Codec ID : 55
Codec ID/Hint : MP3
Duration : 1h 51mn
Bit rate mode : Constant
Bit rate : 128 Kbps
Channel(s) : 2 channels
Sampling rate : 44.1 KHz
Stream size : 102 MiB (15%)
Alignment : Split accross interleaves
Interleave, duration : 40 ms (1.00 video frame)
Interleave, preload duration : 500 ms
Well couldnt wait on english audio for this,wanted to see it lol
So i added mine its very clear as usual...be good enough untill
a line audio comes out..
Video is ELEKTRI4KA thanks guys.

Enjoy

Related Torrents

torrent name size files age seed leech

Sharing Widget


Download torrent
701.75 MB
seeders:5
leechers:0
Percy Jackson And the Olympians The Lightning Thief 2010 Eng LU

Trackers

tracker name Status checked seeders leechers downloads
udp://tracker.openbittorrent.com:80/announce
outdated 08 Jan 2014 - - -
udp://tracker.publicbt.com:80/announce
outdated 08 Jan 2014 - - -
http://tracker.openbittorrent.com/announce
outdated 09 Oct 2012 - - -
http://tracker.publicbt.com/announce
deleted 11 Mar 2013 - - -
µTorrent compatible trackers list

Locations

name
ThePirateBay
ExtraTorrent
Newtorrents
isoHunt
BTjunkie
Torrent hash: 595059563ec5418b6b4f2396724eb1cba720c141

All Comments

audio
4/10
video
4/10
please, leave only comments related to that torrent
or sign-in
1
anonymous • 09 September 2012, 08:14 Show comment
good quality (cough) not (cough)
1
anonymous • 09 September 2012, 08:13 Show comment
audio: 1video: 1
worst video ever! do not download!
1
teknofobe248 • 11 June 2012, 15:49
torrent downloaded
Show comment
audio: 1video: 1
bad quality
0
anonymous • 28 February 2012, 15:37 Show comment
audio: 1video: 1
too bad quality
0
anonymous • 04 February 2012, 17:22 Show comment
Terrible video and sound!
0
anonymous • 04 January 2012, 00:20 Show comment
gay
0
Rottie-mom168 • 22 December 2011, 17:45
torrent downloaded
Show comment
audio: 6video: 4
poor video quality
0
anonymous • 10 December 2011, 17:37 Show comment
audio: 5video: 1
Show More

User Opinions

little D5737, sn33k896, zackmaxpower238, Empiere199, sundowner27uk127, lhnzh1287, snkiz47, remember_my200630, chapo8629, ``JD``1 ... And 59 more
anne_broe2190, dnwilmth928, Neelyo428, reddawg43421, ENERGY78253, Reo327251, Rottie-mom168, denzil101128, sale_9565, Coolchick45 ... And 5 more
Report a bug