Owl City, Yuna - Shine Your Way 2013 M4A+MP4 (1080p) x264 [VX] [P2PDL]

seeders: 3
leechers: 0
Added on Mar 16, 2013 by Vitamin_X75.93K in Movies > Music videos
Torrent verified. Downloaded 115 times.

Owl City, Yuna - Shine Your Way 2013 M4A+MP4 (1080p) x264 [VX] [P2PDL] (Size: 39.83 MB)
  Owl City, Yuna - Shine Your Way (1080p) x264 [VX].mp4 35.69 MB
  01 Owl City & Yuna - Shine Your Way.m4a 3.95 MB
  Cover.jpg 178.39 KB
  Owl City, Yuna - Shine Your Way (1080p) x264 [VX].nfo 10.53 KB
  Torrent downloaded from p2pdl.com.txt 33 bytes

Description

image

Owl City, Yuna - Shine Your Way 2013 M4A+MP4 (1080p) x264 [VX] [P2PDL]

1080p Full HD MP4 Video + 128 Kbps/VBR M4A Audio

General
Complete name : Owl City, Yuna - Shine Your Way (1080p) x264 [VX].mp4
Format : MPEG-4
Format profile : Base Media / Version 2
Codec ID : mp42
File size : 35.7 MiB
Duration : 3mn 36s
Overall bit rate mode : Variable
Overall bit rate : 1 383 Kbps

Video
Format : AVC
Format/Info : Advanced Video Codec
Format profile : High@L4.0
Format settings, CABAC : Yes
Width : 1 920 pixels
Height : 788 pixels
Display aspect ratio : 2.40:1
Frame rate mode : Variable
Frame rate : 23.976 fps
Color space : YUV
Chroma subsampling : 4:2:0
Bit depth : 8 bits
Scan type : Progressive
Bits/(Pixel*Frame) : 0.034
Stream size : 32.3 MiB (91%)
Writing library : x264 core 129

Audio
ID : 2
Format : AAC
Format/Info : Advanced Audio Codec
Format profile : LC
Codec ID : 40
Duration : 3mn 36s
Bit rate mode : Variable
Bit rate : 124 Kbps
Channel(s) : 2 channels
Channel positions : Front: L R
Sampling rate : 48.0 KHz
Stream size : 3.21 MiB (9%)


Subtitles : No


Screens:

image
------------------------------------------------------------------------

Notes:

* Recommended to use latest version VLC Media Player.
* Install shark007 codecs in case of any kind of problem in playback (For non-VLC Media Player users).
* Alternatively, install Core AVC codecs, the fastest decoder that there is coupled with Community Center Codec Pack and play on Windows Media Player Classic.

Greets to: VYTO, a2zRG, MusiK_KinG, Kuroyukihime, Caveman, Ash968, Neon, TwentyForty, Masta, TorDigger and staff members at ExtraTorrent, TPB, H33T, KAT, 1337x, PublicHD, Ahashare, TorrentMafia, Limetorrents, BTScene, P2PDL, and all others

Encoder Notes: Looking For Early Access To Anything You Can Provide DVDScr, R5, DVDRips, BluRay, Direct Audio, Early Music
Releases, Seedboxes, Links, Dedicated Servers anything u can provide, Advance / Promo CDs/DVDs. If You Got anything to
offer contact me at "prg@hush.com"


image

image

Related Torrents

torrent name size files age seed leech

Sharing Widget


Download torrent
39.83 MB
seeders:3
leechers:0
Owl City, Yuna - Shine Your Way 2013 M4A+MP4 (1080p) x264 [VX] [P2PDL]

Trackers

tracker name Status checked seeders leechers downloads
udp://tracker.openbittorrent.com:80/announce
outdated 07 Apr 2014 - - -
http://tracker.ex.ua/announce
outdated 07 Apr 2014 - - -
udp://tracker.publicbt.com:80/announce
outdated 07 Apr 2014 - - -
udp://tracker.istole.it:80/announce
outdated 15 Sep 2013 - - -
http://p2pdl.com:2710/announce
deleted 15 Sep 2013 - - -
http://fr33dom.h33t.com:3310/announce
deleted 15 Sep 2013 - - -
udp://fr33domtracker.h33t.com:3310/announce
deleted 15 Sep 2013 - - -
udp://11.rarbg.me:80/announce
pending 07 Apr 2014 2 0 10
udp://ipv4.tracker.harry.lu:80/announce
pending 15 Sep 2013 4 2 10
http://tracker.yify-torrents.com/announce
pending 15 Sep 2013 0 0 0
µTorrent compatible trackers list

Locations

name
KickassTorrents
Torrent hash: 8CA40D04296FB9C66009ADC6E95A2C004E84D308

All Comments

please, leave only comments related to that torrent
or sign-in
0
sigit3859 • 23 September 2013, 06:47
torrent downloaded
Show comment
audio: 10video: 10
thank you

User Opinions

Dundy-156.11K, Hypersquare014029, SHaW0N2174, JustinSane0591252, njpanchal1071, sigit3859, kineticnrg275, laozhou100259, YudeX148, wawitheman32 ... And 1 more
Report a bug