Oblivion 2013 CAMrip XviD AC3 - TODE

seeders: 28
leechers: 1
Added on Apr 11, 2013 by Silmarillion235.05K in Movies
Torrent verified. Downloaded 37,620 times.

Oblivion 2013 CAMrip XviD AC3 - TODE (Size: 697.5 MB)
  Oblivion 2013 CAMrip XviD AC3 - TODE.avi 697.5 MB

Description

image


http://www.imdb.com/title/tt1483013/



A veteran assigned to extract Earth's remaining resources begins to question what he knows about his mission and himself.



Director:
Joseph Kosinski

Writers:
Joseph Kosinski ,Karl Gajdusek

Stars:
Tom Cruise, Morgan Freeman, Andrea Riseborough

Genres:
Action | Adventure | Sci-Fi | Thriller

Country:
USA

Language:
English


Thanks:FOX


Format : AVI
Format/Info : Audio Video Interleave
File size : 697 MiB
Duration : 1h 57mn
Overall bit rate : 833 Kbps
Writing application : Lavf54.59.103
Writing library : VirtualDub build 32842/release

Video
ID : 0
Format : MPEG-4 Visual
Format profile : Simple@L3
Format settings, BVOP : No
Format settings, QPel : No
Format settings, GMC : No warppoints
Format settings, Matrix : Default (H.263)
Codec ID : XVID
Codec ID/Hint : XviD
Duration : 1h 57mn
Bit rate : 694 Kbps
Width : 640 pixels
Height : 240 pixels
Display aspect ratio : 2.667
Frame rate : 25.000 fps
Color space : YUV
Chroma subsampling : 4:2:0
Bit depth : 8 bits
Scan type : Progressive
Compression mode : Lossy
Bits/(Pixel*Frame) : 0.181
Stream size : 581 MiB (83%)
Writing library : XviD 1.3.0.dev55

Audio
ID : 1
Format : AC-3
Format/Info : Audio Coding 3
Mode extension : CM (complete main)
Format settings, Endianness : Big
Codec ID : 2000
Duration : 1h 57mn
Bit rate mode : Constant
Bit rate : 128 Kbps
Channel(s) : 2 channels
Channel positions : Front: L R
Sampling rate : 48.0 KHz
Bit depth : 16 bits
Compression mode : Lossy
Stream size : 107 MiB (15%)
Alignment : Aligned on interleaves
Interleave, duration : 32 ms (0.80 video frame)
Interleave, preload duration : 512 ms




image
image
image
image
image

Related Torrents

torrent name size files age seed leech

Sharing Widget


Download torrent
697.5 MB
seeders:28
leechers:1
Oblivion 2013 CAMrip XviD AC3 - TODE

Trackers

tracker name Status checked seeders leechers downloads
udp://9.rarbg.me:2710/announce
outdated 02 Sep 2013 - - -
udp://9.rarbg.com:2710/announce
outdated 02 Sep 2013 - - -
http://tracker.ex.ua/announce
outdated 02 Sep 2013 - - -
udp://tracker.openbittorrent.com:80/announce
outdated 02 Sep 2013 - - -
udp://tracker.publicbt.com:80/announce
outdated 02 Sep 2013 - - -
udp://tracker.istole.it:80/announce
outdated 02 Sep 2013 - - -
http://exodus.desync.com:6969/announce
blocked 02 Sep 2013 - - -
http://exodus.desync.com/announce
blocked 02 Sep 2013 - - -
udp://fr33domtracker.h33t.com:3310/announce
deleted 02 Sep 2013 - - -
udp://ipv4.tracker.harry.lu:80/announce
pending 02 Sep 2013 28 1 10
µTorrent compatible trackers list

Locations

name
KickassTorrents
Torrent hash: 4F8C01044CCB1A19088005757F4F4047A418221C

All Comments

audio
4/10
video
4/10
please, leave only comments related to that torrent
or sign-in
0
azkahuna1427 • 02 June 2013, 10:32
torrent downloaded
Show comment
another boring cruise vehicle
0
anonymous • 13 May 2013, 00:57 Show comment
yup but its cinavia protected
-1
SeedMoFo1019 • 14 May 2013, 17:31 Show comment
Comment is deleted
0
anonymous • 14 May 2013, 21:08 Show comment
how do you switch the wireless on the ps3?
0
.Z0MBI3122.47K • 01 June 2013, 18:51 Show comment
SeedMoFo You're the muppet mate that makes no difference.
0
anonymous • 12 May 2013, 09:28 Show comment
audio: 6video: 3
1
CindyKAT14.67K • 28 April 2013, 03:35
torrent downloaded
Show comment
audio: 7video: 7
great film - takes watching several times - ALL COPIES ARE CAM RIGHT NOW -- 7 x 7 (there is some blurring / problems on every single copy I have downloaded)
0
anonymous • 23 April 2013, 05:59 Show comment
audio: 1video: 2
It's useless
Show More

User Opinions

bermon1661, draven691231, slim711054, mcjamie752, iscotballs381, timeke361, plham323, tttsakalos273, Regansmom7233, Themusicman22 ... And 20 more
azkahuna1427, hardheaded1704, matyk669, DRMNBinx314, akylchinni102, DDre94, AzrielofBones0
Report a bug