Nikita S01 Complete HDTV Xvid

seeders: 2
leechers: 3
Added on May 14, 2011 by freesites1620 in TV
Downloaded 10 times.

  • View all Nikita episodes
  • Episode title: Pilot
  • Episode: S01E01
  • Air date: 09 September 2010
  • Original run: 09 September 2010 — 27 December 2013
  • Summary:
    A rogue assassin returns to take down the secret organization that trained her.
    Submitted by Thhaque332.32K
    report summary
Nikita S01 Complete HDTV Xvid (Size: 7.53 GB)
  nikita.s01e20.hdtv.xvid-asap.avi 351 MB
  nikita.s01e04.hdtv.xvid-p0w4.avi 350.96 MB
  nikita.s01e05.hdtv.xvid-2hd.avi 350.76 MB
  nikita.s01e07.hdtv.xvid-2hd.avi 350.71 MB
  nikita.s01e06.hdtv.xvid-fqm.avi 350.47 MB
  nikita.s01e13.hdtv.xvid-fqm.avi 350.46 MB
  Nikita.S01E22.Pandora.HDTV.XviD-FQM.avi 350.46 MB
  Nikita.S01E03.PROPER.HDTV.XviD-FQM.avi 350.45 MB
  nikita.s01e08.hdtv.xvid-fqm.avi 350.44 MB
  nikita.s01e02.hdtv.xvid-fqm.avi 350.44 MB
  nikita.s01e09.hdtv.xvid-p0w4.avi 350.41 MB
  nikita.s01e14.repack.hdtv.xvid-fqm.avi 350.38 MB
  nikita.s01e10.hdtv.xvid-2hd.avi 350.37 MB
  nikita.s01e16.hdtv.xvid-2hd.avi 350.14 MB
  Nikita.S01E18.Into.the.Dark.HDTV.XviD-FQM.avi 350.05 MB
  nikita.s01e11.hdtv.xvid-fever.avi 350.05 MB
  nikita.s01e19.hdtv.xvid-asap.avi 350.01 MB
  nikita.s01e12.hdtv.xvid-fqm.avi 350 MB
  nikita.s01e17.hdtv.xvid-asap.avi 349.96 MB
  nikita.s01e15.hdtv.xvid-asap.avi 349.93 MB
  nikita.s01e21.proper.hdtv.xvid-2hd.avi 349.92 MB
  Nikita.S01E01.HDTV.XviD-LOL.avi 349.7 MB
  Korean Subtitle.zip 1.07 MB
  Torrent_downloaded_from_Demonoid.com.txt 47 bytes

Description

Nikita.S01.Complete.HDTV.Xvid
Season 1
All Episodes
Nikita is a trained Assassin gone Rouge trying to stop a secret U.S. agency known only as Division for trying to requite deeply troubled teenagers and train them to be Assassins.
Stars:
Maggie Q, Shane West and Lyndsy Fonseca
General Movie INFO:
iMDb: http://www.imdb.com/title/tt1592154/
Format : AVI
Format/Info : Audio Video Interleave
Overall bit rate : 1 168 Kbps
Writing application : transcode-1.0.4
Video
ID : 0
Format : MPEG-4 Visual
Format profile : Advanced Simple@L5
Format settings, BVOP : 2
Format settings, QPel : No
Format settings, GMC : No warppoints
Format settings, Matrix : Default (H.263)
Codec ID : XVID
Codec ID/Hint : XviD
Bit rate : 997 Kbps
Width : 624 pixels
Height : 352 pixels
Display aspect ratio : 16:9
Frame rate : 23.976 fps
Color space : YUV
Chroma subsampling : 4:2:0
Bit depth : 8 bits
Scan type : Progressive
Compression mode : Lossy
Bits/(Pixel*Frame) : 0.189
Stream size : 299 MiB (85%)
Writing library : XviD 1.2.1 (UTC 2008-12-04)
Audio
ID : 1
Format : MPEG Audio
Format version : Version 1
Format profile : Layer 3
Codec ID : 55
Codec ID/Hint : MP3
Bit rate mode : Variable
Bit rate : 128 Kbps
Channel(s) : 2 channels
Sampling rate : 48.0 KHz
Compression mode : Lossy
Stream size : 47.4 MiB (14%)
Alignment : Aligned on interleaves
Interleave, duration : 24 ms (0.58 video frame)
image

Related Torrents

torrent name size files age seed leech

Sharing Widget


Download torrent
7.53 GB
seeders:2
leechers:3
Nikita S01 Complete HDTV Xvid

Trackers

tracker name Status checked seeders leechers downloads
udp://tracker.openbittorrent.com:80/announce
outdated 13 Jul 2014 - - -
udp://tracker.publicbt.com:80/announce
outdated 13 Jul 2014 - - -
http://inferno.demonoid.me:3390/announce
outdated 19 Aug 2013 - - -
http://tracker.openbittorrent.com/announce
outdated 19 Aug 2013 - - -
http://tracker.publicbt.com/announce
deleted 19 Aug 2013 - - -
µTorrent compatible trackers list

Locations

name
KickassTorrents
Torrent hash: 80E8693538BA221936136D02FB7A391E45C96FB9

All Comments

audio
9/10
video
9/10
please, leave only comments related to that torrent
or sign-in
0
skatman9680 • 20 October 2013, 21:13 Show comment
audio: 10video: 10
0
deyamag898 • 20 September 2013, 19:28
torrent downloaded
Show comment
thank you very much.
0
itsrelo1662 • 24 February 2012, 20:52 Show comment
audio: 8video: 8
super

User Opinions

morfeas19817435, sra07293902, prprettypls2058, itsrelo1662, ugur.diker11193, Lielow983, Koushik4t750, bmorepatriot189, katazop97, sheva7518 ... And 8 more
Ronidee1021
Report a bug