Neverland.2011.1080p.MKV.x264.AC3.DTS.Eng.NL.Subs

seeders: 2
leechers: 11
Added on Mar 2, 2012 by NLUPPER00238.51K in Movies > Highres Movies
Torrent verified. Downloaded 10 times.

Available in versions: 1080p720pBDRipHDRiPDVDDVDRip
Neverland.2011.1080p.MKV.x264.AC3.DTS.Eng.NL.Subs (Size: 16.32 GB)
  Neverland.2011.1080p.MKV.x264.AC3.DTS.Eng.NL.Subs
  Neverland.2011.1080p.MKV.x264.AC3.DTS.Eng.NL.Subs.nfo 13.48 KB
  Torrent downloaded from extratorrent.com.txt 353 bytes
  Torrent downloaded from AhaShare.com.txt 58 bytes
  Torrent downloaded from Torrentstate.com.txt 46 bytes
  Torrent downloaded from Demonoid.me.txt 46 bytes
  Torrent downloaded from Rarbg.com.txt 33 bytes
  Torrent downloaded from Silvertorrents.me.txt 29 bytes
  tracked_by_h33t_com.txt 23 bytes

Description

Neverland (2011) 1080p MKV x264 AC3+DTS Eng NL Subs
.
image
.
Verenigde Staten
Avontuur / Fantasy
180 minuten (miniserie, 2 delen)

geregisseerd door Nick Willing
met Rhys Ifans, Charlie Rowe en Bob Hoskins

Peter (Charlie Rowe) en zijn maatjes zijn een stel zakkenrollers die opgegroeid zijn in de straten van Londen. Dan worden ze opgetrommeld door hun mentor Jimmy Hook (Rhys Ifans) om een schat te stelen met magische krachten die hen naar een andere wereld transporteert. Deze andere wereld heet Neverland en is een rijk met jungles en legendarische mysteries van eeuwige jeugd. Daar worden ze geconfronteerd met een groep piraten geleid door de machtbeluste Elizabeth Bonny (Anna Friel) en een groep indianen, de Kaw Tribe genaamd.
.
http://www.moviemeter.nl/film/73653
.
PLOT
.
Raised on the streets of turn-of-the century London, orphaned Peter and his pals survive by their fearless wits as cunning young pickpockets...
.
http://www.imdb.com/title/tt1720619/
.
INFO PART 1
.
NL Vertaling: QoQ TEAM
.
Format : Matroska
Format version : Version 2
File size : 7.20 GiB
Duration : 1h 25mn
Overall bit rate : 12.1 Mbps
Encoded date : UTC 2012-03-02 10:02:00
Writing application : mkvmerge v3.3.0 ('Language') built on Mar 24 2010 14:59:24
Writing library : libebml v0.8.0 + libmatroska v0.9.0

Video
ID : 1
Format : AVC
Format/Info : Advanced Video Codec
Format profile : High@L4.1
Format settings, CABAC : Yes
Format settings, ReFrames : 4 frames
Codec ID : V_MPEG4/ISO/AVC
Duration : 1h 25mn
Bit rate : 9 000 Kbps
Width : 1 920 pixels
Height : 1 080 pixels
Display aspect ratio : 16:9
Frame rate : 23.976 fps
Color space : YUV
Chroma subsampling : 4:2:0
Bit depth : 8 bits
Scan type : Progressive
Bits/(Pixel*Frame) : 0.181
Stream size : 5.24 GiB (73%)
Writing library : x264 core 120 r2164 da19765
Encoding settings : cabac=1 / ref=4 / deblock=1:-3:-3 / analyse=0x3:0x133 / me=umh / subme=10 / psy=1 / psy_rd=1.01:0.00 / mixed_ref=1 / me_range=64 / chroma_me=1 / trellis=2 / 8x8dct=1 / cqm=0 / deadzone=21,11 / fast_pskip=0 / chroma_qp_offset=-2 / threads=12 / sliced_threads=0 / nr=0 / decimate=0 / interlaced=0 / bluray_compat=0 / constrained_intra=0 / bframes=7 / b_pyramid=2 / b_adapt=2 / b_bias=0 / direct=3 / weightb=1 / open_gop=0 / weightp=2 / keyint=240 / keyint_min=24 / scenecut=40 / intra_refresh=0 / rc=2pass / mbtree=0 / bitrate=9000 / ratetol=1.0 / qcomp=0.70 / qpmin=0 / qpmax=69 / qpstep=4 / cplxblur=20.0 / qblur=0.5 / ip_ratio=1.40 / pb_ratio=1.25 / aq=1:1.10
Language : English
Default : Yes
Forced : No

Audio #1
ID : 2
Format : DTS
Format/Info : Digital Theater Systems
Codec ID : A_DTS
Duration : 1h 25mn
Bit rate mode : Constant
Bit rate : 1 510 Kbps
Channel(s) : 6 channels
Channel positions : Front: L C R, Side: L R, LFE
Sampling rate : 48.0 KHz
Bit depth : 24 bits
Compression mode : Lossy
Delay relative to video : 13ms
Stream size : 923 MiB (13%)
Title : Engels DTS
Language : English
Default : Yes
Forced : No

Audio #2
ID : 3
Format : AC-3
Format/Info : Audio Coding 3
Mode extension : CM (complete main)
Codec ID : A_AC3
Duration : 1h 25mn
Bit rate mode : Constant
Bit rate : 640 Kbps
Channel(s) : 6 channels
Channel positions : Front: L C R, Side: L R, LFE
Sampling rate : 48.0 KHz
Bit depth : 16 bits
Compression mode : Lossy
Delay relative to video : 2ms
Stream size : 391 MiB (5%)
Title : Engels DD5.1
Language : English
Default : No
Forced : No

Audio #3
ID : 4
Format : AC-3
Format/Info : Audio Coding 3
Mode extension : CM (complete main)
Codec ID : A_AC3
Duration : 1h 25mn
Bit rate mode : Constant
Bit rate : 640 Kbps
Channel(s) : 2 channels
Channel positions : Front: L R
Sampling rate : 48.0 KHz
Bit depth : 16 bits
Compression mode : Lossy
Delay relative to video : 2ms
Stream size : 391 MiB (5%)
Title : commentary DD5.1
Language : English
Default : No
Forced : No

Audio #4
ID : 5
Format : DTS
Format/Info : Digital Theater Systems
Codec ID : A_DTS
Duration : 1h 25mn
Bit rate mode : Constant
Bit rate : 256 Kbps
Channel(s) : 2 channels
Channel positions : Front: L R
Sampling rate : 48.0 KHz
Bit depth : 24 bits
Compression mode : Lossy
Delay relative to video : 13ms
Stream size : 156 MiB (2%)
Title : commentary DTS
Language : English
Default : No
Forced : No

Text #1
ID : 6
Format : UTF-8
Codec ID : S_TEXT/UTF8
Codec ID/Info : UTF-8 Plain Text
Title : Nederlands QoQ-Team
Language : Dutch
Default : Yes
Forced : Yes

Text #2
ID : 7
Format : PGS
Codec ID : S_HDMV/PGS
Codec ID/Info : The same subtitle format used on BDs/HD-DVDs
Title : Engels
Language : English
Default : No
Forced : No

INFO PART 2
.
Format : Matroska
Format version : Version 2
File size : 9.12 GiB
Duration : 1h 23mn
Overall bit rate : 15.7 Mbps
Encoded date : UTC 2012-03-02 10:14:48
Writing application : mkvmerge v3.3.0 ('Language') built on Mar 24 2010 14:59:24
Writing library : libebml v0.8.0 + libmatroska v0.9.0

Video
ID : 1
Format : AVC
Format/Info : Advanced Video Codec
Format profile : High@L4.1
Format settings, CABAC : Yes
Format settings, ReFrames : 4 frames
Codec ID : V_MPEG4/ISO/AVC
Duration : 1h 23mn
Bit rate : 12.6 Mbps
Width : 1 920 pixels
Height : 1 080 pixels
Display aspect ratio : 16:9
Frame rate : 23.976 fps
Color space : YUV
Chroma subsampling : 4:2:0
Bit depth : 8 bits
Scan type : Progressive
Bits/(Pixel*Frame) : 0.253
Stream size : 7.16 GiB (79%)
Writing library : x264 core 120 r2164 da19765
Encoding settings : cabac=1 / ref=4 / deblock=1:-3:-3 / analyse=0x3:0x133 / me=umh / subme=10 / psy=1 / psy_rd=1.01:0.00 / mixed_ref=1 / me_range=64 / chroma_me=1 / trellis=2 / 8x8dct=1 / cqm=0 / deadzone=21,11 / fast_pskip=0 / chroma_qp_offset=-2 / threads=12 / sliced_threads=0 / nr=0 / decimate=0 / interlaced=0 / bluray_compat=0 / constrained_intra=0 / bframes=7 / b_pyramid=2 / b_adapt=2 / b_bias=0 / direct=3 / weightb=1 / open_gop=0 / weightp=2 / keyint=240 / keyint_min=24 / scenecut=40 / intra_refresh=0 / rc=2pass / mbtree=0 / bitrate=12600 / ratetol=1.0 / qcomp=0.70 / qpmin=0 / qpmax=69 / qpstep=4 / cplxblur=20.0 / qblur=0.5 / ip_ratio=1.40 / pb_ratio=1.25 / aq=1:1.10
Language : English
Default : Yes
Forced : No

Audio #1
ID : 2
Format : DTS
Format/Info : Digital Theater Systems
Codec ID : A_DTS
Duration : 1h 23mn
Bit rate mode : Constant
Bit rate : 1 510 Kbps
Channel(s) : 6 channels
Channel positions : Front: L C R, Side: L R, LFE
Sampling rate : 48.0 KHz
Bit depth : 24 bits
Compression mode : Lossy
Delay relative to video : 13ms
Stream size : 901 MiB (10%)
Title : Engels DTS
Language : English
Default : Yes
Forced : No

Audio #2
ID : 3
Format : AC-3
Format/Info : Audio Coding 3
Mode extension : CM (complete main)
Codec ID : A_AC3
Duration : 1h 23mn
Bit rate mode : Constant
Bit rate : 640 Kbps
Channel(s) : 6 channels
Channel positions : Front: L C R, Side: L R, LFE
Sampling rate : 48.0 KHz
Bit depth : 16 bits
Compression mode : Lossy
Delay relative to video : 2ms
Stream size : 382 MiB (4%)
Title : Engels DD5.1
Language : English
Default : No
Forced : No

Audio #3
ID : 4
Format : DTS
Format/Info : Digital Theater Systems
Codec ID : A_DTS
Duration : 1h 23mn
Bit rate mode : Constant
Bit rate : 256 Kbps
Channel(s) : 2 channels
Channel positions : Front: L R
Sampling rate : 48.0 KHz
Bit depth : 24 bits
Compression mode : Lossy
Delay relative to video : 13ms
Stream size : 153 MiB (2%)
Title : commentary DTS
Language : English
Default : No
Forced : No

Audio #4
ID : 5
Format : AC-3
Format/Info : Audio Coding 3
Mode extension : CM (complete main)
Codec ID : A_AC3
Duration : 1h 23mn
Bit rate mode : Constant
Bit rate : 640 Kbps
Channel(s) : 2 channels
Channel positions : Front: L R
Sampling rate : 48.0 KHz
Bit depth : 16 bits
Compression mode : Lossy
Delay relative to video : 2ms
Stream size : 382 MiB (4%)
Title : commentary DTS
Language : English
Default : No
Forced : No

Text #1
ID : 6
Format : UTF-8
Codec ID : S_TEXT/UTF8
Codec ID/Info : UTF-8 Plain Text
Title : Nederlands QoQ-Team
Language : Dutch
Default : Yes
Forced : Yes

Text #2
ID : 7
Format : PGS
Codec ID : S_HDMV/PGS
Codec ID/Info : The same subtitle format used on BDs/HD-DVDs
Title : Engels
Language : English
Default : No
Forced : No
.
Enjoy

Related Torrents

torrent name size files age seed leech

Sharing Widget


Download torrent
16.32 GB
seeders:2
leechers:11
Neverland.2011.1080p.MKV.x264.AC3.DTS.Eng.NL.Subs

Trackers

tracker name Status checked seeders leechers downloads
udp://tracker.openbittorrent.com:80/announce
outdated 02 Aug 2014 - - -
udp://tracker.publicbt.com:80/announce
outdated 02 Aug 2014 - - -
udp://9.rarbg.com:2710/announce
outdated 02 Aug 2014 - - -
http://inferno.demonoid.me:3418/announce
outdated 27 Nov 2012 - - -
http://tracker.openbittorrent.com/announce
outdated 27 Nov 2012 - - -
udp://tracker.1337x.org:80/announce
outdated 27 Nov 2012 - - -
http://exodus.desync.com:6969/announce
blocked 27 Nov 2012 - - -
http://fr33dom.h33t.com:3310/announce
deleted 20 May 2013 - - -
http://tracker.publicbt.com/announce
deleted 11 Mar 2013 - - -
udp://11.rarbg.com:80/announce
private 02 Aug 2014 2 11 10
ĀµTorrent compatible trackers list

Locations

name
KickassTorrents
ExtraTorrent
ThePirateBay
Torrent hash: 7AFD1E7EE37E44A9D91913C01ED5C157BA5A45A4

All Comments

audio
0/10
video
0/10
please, leave only comments related to that torrent
or sign-in
0
orka10541 • 19 March 2013, 18:35
torrent downloaded
Show comment
Thanks for the Upload.

User Opinions

Report a bug