Advertising (remove)

Nessa Devil - Animal Instinct Is Calling(XXX)(iPod,PSP,Zune)

seeders: 1
leechers: 0
Added on Feb 14, 2011 in XXX > Video
Torrent verified. Downloaded once.

Nessa Devil - Animal Instinct Is Calling(XXX)(iPod,PSP,Zune) (Size: 64.12 MB)
  Animal Instinct Is Calling.m4v 63.84 MB
  screen.jpg 294.58 KB
Advertising (remove)

Description

Screenshots:

http://10b20241.linkbabes.com

Video
ID : 1
Format : AVC
Format/Info : Advanced Video Codec
Format profile : Baseline@L1.3
Format settings, CABAC : No
Format settings, ReFrames : 2 frames
Codec ID : avc1
Codec ID/Info : Advanced Video Coding
Duration : 21mn 22s
Bit rate mode : Variable
Bit rate : 350 Kbps
Width : 368 pixels
Height : 272 pixels
Display aspect ratio : 4:3
Frame rate mode : Variable
Frame rate : 23.976 fps
Minimum frame rate : 23.974 fps
Maximum frame rate : 23.981 fps
Color space : YUV
Chroma subsampling : 4:2:0
Bit depth : 8 bits
Scan type : Progressive
Bits/(Pixel*Frame) : 0.146
Stream size : 53.5 MiB (84%)
Writing library : x264 core 112

Audio
ID : 2
Format : AAC
Format/Info : Advanced Audio Codec
Format profile : LC
Codec ID : 40
Duration : 21mn 22s
Bit rate mode : Variable
Bit rate : 64.0 Kbps
Maximum bit rate : 82.7 Kbps
Channel(s) : 1 channel
Channel positions : Front: C
Sampling rate : 44.1 KHz
Compression mode : Lossy
Stream size : 9.79 MiB (15%)

More Torrents...

http://thepiratebay.org/user/punter21

Related Torrents

torrent name size files age seed leech

Sharing Widget


Download torrent
64.12 MB
seeders:1
leechers:0
Nessa Devil - Animal Instinct Is Calling(XXX)(iPod,PSP,Zune)

Trackers

tracker name Status checked seeders leechers downloads
udp://tracker.openbittorrent.com:80/announce
active 10 Aug 2014 1 0 0
udp://tracker.publicbt.com:80/announce
active 10 Aug 2014 1 0 1
http://exodus.1337x.org/announce
outdated 13 Jul 2011 - - -
http://tracker.openbittorrent.com/announce
outdated 14 Feb 2011 - - -
http://tracker.publicbt.com/announce
deleted 11 Mar 2013 - - -
µTorrent compatible trackers list

Locations

name
ThePirateBay
1337x
Torrent hash: 3508dd09d501727c48a904f51bf196192960a18e

All Comments

audio
0/10
video
0/10
please, leave only comments related to that torrent
or sign-in
0
anonymous • 13 March 2011, 05:54 Show comment
fake tits but still good
Report a bug