Advertising (remove)

My Friends Hot Mom - Ava Devine

seeders: 1
leechers: 0
Added on Feb 20, 2011 in XXX
Torrent verified. Downloaded 1,347 times.

My Friends Hot Mom - Ava Devine (Size: 145.42 MB)
  mfhmavadevine8_700k.wmv 144.99 MB
  mfhmadp2.jpg 116.83 KB
  mfhmadp.jpg 108.31 KB
  mfhmadp3.jpg 80.24 KB
  mfhmadp4.jpg 76.27 KB
  mfhmadp5.jpg 57.96 KB
  mfhmavadevine8_700k.wmv.nfo 4.04 KB
Advertising (remove)

Description


Screen 1

Screen 2

Screen 3





Format : Windows Media

File size : 145 MiB

Duration : 26mn 21s

Overall bit rate mode : Constant

Overall bit rate : 769 Kbps

Maximum Overall bit rate : 774 Kbps

Encoded date : UTC 2007-01-11 10:35:56.796



Video

ID : 2

Format : VC-1

Format profile : MP@ML

Codec ID : WMV3

Codec ID/Info : Windows Media Video 9

Codec ID/Hint : WMV3

Description of the codec : Windows Media Video 9

Duration : 26mn 21s

Bit rate mode : Constant

Bit rate : 700 Kbps

Width : 720 pixels

Height : 480 pixels

Display aspect ratio : 3:2

Frame rate : 29.970 fps

Standard : NTSC

Bit depth : 8 bits

Scan type : Progressive

Bits/(Pixel*Frame) : 0.068

Stream size : 132 MiB (91%)

Language : English (US)



Audio

ID : 1

Format : WMA

Format version : Version 2

Codec ID : 161

Codec ID/Info : Windows Media Audio

Description of the codec : Windows Media Audio 9.1 - 64 kbps, 44 kHz, stereo (A/V) 2-pass CBR

Duration : 26mn 21s

Bit rate mode : Constant

Bit rate : 64.0 Kbps

Channel(s) : 2 channels

Sampling rate : 44.1 KHz

Bit depth : 16 bits

Stream size : 12.1 MiB (8%)

Language : English (US)




Related Torrents

torrent name size files age seed leech

Sharing Widget


Download torrent
145.42 MB
seeders:1
leechers:0
My Friends Hot Mom - Ava Devine

Trackers

tracker name Status checked seeders leechers downloads
udp://tracker.publicbt.com:80/announce
outdated 05 Oct 2011 - - -
http://tracker.openbittorrent.com/announce
outdated 05 Oct 2011 - - -
udp://tracker.openbittorrent.com:80/announce
outdated 05 Oct 2011 - - -
http://bt.wrzru.com:2710/43820328917a3f494819ba520a2a5cc8/announce
outdated 05 Oct 2011 - - -
http://tracker.publicbt.com/announce
deleted 05 Oct 2011 - - -
ĀµTorrent compatible trackers list

Locations

name author
1337x
Torrent hash: 729234b65bf34ef494f71c31df0c258ef8d15855

All Comments

audio
0/10
video
0/10
please, leave only comments related to that torrent
or sign-in
0
mn-x3784 • 07 October 2011, 09:48
torrent downloaded
Show comment
hot :)
Report a bug