Middle Men 2009 LIMITED 720p BRRip x264 Feel-Free

seeders: 5
leechers: 4
Added on Jan 31, 2011 by Mantesh173.39K in Movies > Highres Movies
Torrent verified. Downloaded 10 times.

Available in versions: 720pHDRiPDVDDVDRipiPhone
Middle Men 2009 LIMITED 720p BRRip x264 Feel-Free (Size: 2.1 GB)
  7588e6137a99ca6db9c50dd35a0c2d2a53928206.jpg 49.34 KB
  Middle.Men.2009.LIMITED.720p.BRRip.x264. 2.67 KB
  Middle.Men.2009.LIMITED.720p.BRRip.x264.Feel-Free.mp4 2.09 GB
  Middle.Men.2009.LIMITED.720p.BRRip.x264.Feel-Free.srt 131.22 KB
  Torrent downloaded from extratorrent.com.txt 119 bytes
  vlcsnap-00001.png 1.09 MB
  vlcsnap-00002.png 1.04 MB
  vlcsnap-00003.png 909.9 KB
  vlcsnap-00004.png 930.11 KB
  vlcsnap-00005.png 848.48 KB

Description

image









Genre:Comedy | Crime | Drama
Language:English
IMDb:http://www.imdb.com/title/tt1251757/
Source:1080p.BluRay.x264-SECTOR7
Subtitles:Romana


Format : MPEG-4
Format profile : Base Media
Codec ID : isom
File size : 2.09 GiB
Duration : 1h 52mn
Overall bit rate : 2 671 Kbps
Movie name : Middle.Men.2009.LIMITED.720p.BRRip.x264.Feel-Free


Video
Format settings, CABAC : Yes
Format settings, ReFrames : 4 frames
Format settings, GOP : M=4, N=16
Codec ID : avc1
Codec ID/Info : Advanced Video Coding
Duration : 1h 52mn
Bit rate mode : Variable
Bit rate : 2 300 Kbps
Width : 1 280 pixels
Height : 528 pixels
Display aspect ratio : 2.40:1
Frame rate mode : Constant
Frame rate : 23.976 fps
Color space : YUV
Chroma subsampling : 4:2:0
Bit depth : 8 bits
Scan type : Progressive
Bits/(Pixel*Frame) : 0.142
Stream size : 1.79 GiB (85%)
Writing library : x264

Audio
ID : 2
Format : AAC
Format/Info : Advanced Audio Codec
Format version : Version 4
Format profile : LC
Codec ID : 40
Duration : 1h 52mn
Bit rate mode : Variable
Bit rate : 384 Kbps
Channel(s) : 6 channels
Channel positions : Front: L C R, Side: L R, LFE
Sampling rate : 48.0 KHz
Stream size : 308 MiB (14%)



Plot:
Chronicles Jack Harris, one of the pioneers of internet commerce, as he wrestles with his morals and struggles not to drown in a sea of conmen, mobsters, drug addicts, and pornstars.







image

Related Torrents

torrent name size files age seed leech

Sharing Widget


Download torrent
2.1 GB
seeders:5
leechers:4
Middle Men 2009 LIMITED 720p BRRip x264 Feel-Free

Trackers

tracker name Status checked seeders leechers downloads
udp://tracker.openbittorrent.com:80/announce
active 22 Aug 2014 5 4 10
udp://tracker.publicbt.com:80/announce
active 22 Aug 2014 2 2 10
http://exodus.1337x.org/announce
outdated 19 Sep 2013 - - -
http://nemesis.1337x.org/announce
outdated 19 Sep 2013 - - -
http://genesis.1337x.org:1337/announce
outdated 19 Sep 2013 - - -
http://tracker.openbittorrent.com/announce
outdated 19 Sep 2013 - - -
http://tracker.publicbt.com/announce
deleted 19 Sep 2013 - - -
ĀµTorrent compatible trackers list

Locations

name
KickassTorrents
ExtraTorrent
ThePirateBay
1337x
Torrent hash: 9a491c3690d684888b712ca0f6db47447cbc057e

Top Comments

3
capitolfi10.73K • 01 Feb 2011, 14:45
torrent downloaded
audio: 10video: 10
Outstanding. Thanks.
3
OutOnBail797 • 05 Feb 2011, 15:42
torrent downloaded
audio: 9video: 9
Great movie.
Good Quality
3
xtremebob2930 • 07 Feb 2011, 09:38
torrent downloaded
audio: 9video: 8
a bit over-compressed, but a very good copy. Great work

All Comments

audio
9/10
video
9/10
please, leave only comments related to that torrent
or sign-in
0
_Ingvar_126 • 25 May 2014, 13:54
torrent downloaded
Show comment
Thanks, bro.
0
rubikstu278 • 27 January 2014, 02:33
torrent downloaded
Show comment
audio: 10video: 10
High quality audio and 1280x528 video. With Romanian subtitles. Enjoyed watching on PC. Thank you
0
pugs13pugs1814 • 24 August 2013, 03:07
torrent downloaded
Show comment
audio: 8video: 8
Thanks for the upload, nice movie and quality is good.
0
sweenytodd11053 • 19 August 2013, 14:13
torrent downloaded
Show comment
audio: 10video: 10
good movie.
0
phenom1251040 • 22 May 2013, 19:19
torrent downloaded
Show comment
audio: 9video: 9
0
Deadpool1661328 • 22 May 2012, 03:06
torrent downloaded
Show comment
audio: 10video: 10
Great quality, good movie, Thanks.
0
thess1041005 • 09 August 2011, 19:48
torrent downloaded
Show comment
audio: 8video: 8
very good thanks
0
phoenixray239 • 31 July 2011, 08:22
torrent downloaded
Show comment
audio: 10video: 10
0
oureuphoriant18 • 08 June 2011, 02:32
torrent downloaded
Show comment
audio: 10video: 10
Show More

User Opinions

q8djent5167, inn2pink2616, Viewer_551592, The Wannabe883, achaian494, andreittk165, 1sean165, jdrain105, ultimatedownloader56, oureuphoriant18 ... And 46 more
msdelipsis2858, skandic269, Chukizzz85
Report a bug