Advertising (remove)

Mia Malkova - Family Business - TeensLikeItBig

seeders: 3
leechers: 1
Added on Nov 22, 2013 by ponklay6120 in XXX > Video
Torrent verified. Downloaded 10 times.

Mia Malkova - Family Business - TeensLikeItBig (Size: 363.12 MB)
  Mia_Malkova_Family_Business_TeensLikeItBig.mp4 363.12 MB
Advertising (remove)

Description

Screens:
http://imgchili.net/show/42384/42384392_mia_malkova_family_b.jpg

Family Business
Mia Malkova, Johnny Sins
Teens Like It Big November 19, 2013

Mia Malkova had no idea her old man was a porn tycoon. When she went in one day to visit him at the office, Mr. Hogan told his staff to make sure she never found out. But Johnny couldn't ignore a chance to fuck the boss's daughter, because she's so fucking sweet and innocent. Seeing the raunchy HD porn on the editing screen turned Mia on so much, Johnny knew he had a chance to get that bubble butt. He bent her over and shoved his tongue in that sweet hole, then pounded her sweet pussy until she came over and over.

Mia_Malkova_Family_Business_TeensLikeItBig.mp4
Format : MPEG-4
Format profile : Base Media
Codec ID : isom
File size : 363 MiB
Duration : 42mn 39s
Overall bit rate : 1 190 Kbps
Writing application : Lavf55.1.100

Video
ID : 1
Format : AVC
Format/Info : Advanced Video Codec
Format profile : High@L3.1
Format settings, CABAC : Yes
Format settings, ReFrames : 5 frames
Codec ID : avc1
Codec ID/Info : Advanced Video Coding
Duration : 42mn 39s
Bit rate : 1 000 Kbps
Width : 854 pixels
Height : 480 pixels
Display aspect ratio : 16:9
Frame rate mode : Constant
Frame rate : 29.970 fps
Color space : YUV
Chroma subsampling : 4:2:0
Bit depth : 8 bits
Scan type : Progressive
Bits/(Pixel*Frame) : 0.081
Stream size : 305 MiB (84%)
Writing library : x264 core 130 r2274 c832fe9
Encoding settings : cabac=1 / ref=5 / deblock=1:0:0 / analyse=0x3:0x113 / me=umh / subme=8 / psy=1 / psy_rd=1.00:0.00 / mixed_ref=1 / me_range=16 / chroma_me=1 / trellis=1 / 8x8dct=1 / cqm=0 / deadzone=21,11 / fast_pskip=1 / chroma_qp_offset=-2 / threads=36 / lookahead_threads=3 / sliced_threads=0 / nr=0 / decimate=1 / interlaced=0 / bluray_compat=0 / constrained_intra=0 / bframes=3 / b_pyramid=2 / b_adapt=2 / b_bias=0 / direct=3 / weightb=1 / open_gop=0 / weightp=2 / keyint=60 / keyint_min=6 / scenecut=40 / intra_refresh=0 / rc_lookahead=50 / rc=abr / mbtree=1 / bitrate=1000 / ratetol=1.0 / qcomp=0.60 / qpmin=0 / qpmax=69 / qpstep=4 / ip_ratio=1.40 / aq=1:1.00
Tagged date : UTC 2013-11-16 16:19:40

Audio
ID : 2
Format : AAC
Format/Info : Advanced Audio Codec
Format profile : LC
Codec ID : 40
Duration : 42mn 39s
Duration_LastFrame : 33ms
Bit rate mode : Constant
Bit rate : 128 Kbps
Channel count : 2 channels
Channel positions : Front: L R
Sampling rate : 48.0 KHz
Compression mode : Lossy
Stream size : 39.1 MiB (11%)
Tagged date : UTC 2013-11-16 16:19:40

Related Torrents

torrent name size files age seed leech

Sharing Widget


Download torrent
363.12 MB
seeders:3
leechers:1
Mia Malkova - Family Business - TeensLikeItBig

Trackers

tracker name Status checked seeders leechers downloads
udp://tracker.istole.it:80/announce
active 06 Jul 2014 2 1 10
udp://tracker.publicbt.com:80/announce
active 06 Jul 2014 1 1 10
udp://9.rarbg.com:2710/announce
active 06 Jul 2014 3 1 1
udp://9.rarbg.me:2710/announce
active 06 Jul 2014 3 1 1
udp://tracker.openbittorrent.com:80/announce
active 06 Jul 2014 0 1 10
udp://exodus.desync.com:6969/announce
blocked 23 Feb 2014 - - -
udp://tracker.token.ro:80/announce
pending 06 Jul 2014 1 1 10
udp://ipv4.tracker.harry.lu:80/announce
pending 06 Jul 2014 1 1 10
http://tracker.nwps.ws:6969/announce
pending 08 Jan 2014 16 2 847
ĀµTorrent compatible trackers list

Locations

name
KickassTorrents
Torrent hash: 4ECAC4912471EE38E93948DA819A0A0A9A9533E0

All Comments

audio
10/10
video
9/10
please, leave only comments related to that torrent
or sign-in
0
OFrazK610 • 11 January 2014, 05:11
torrent downloaded
Show comment
audio: 10video: 9
great video. thanks uploader

User Opinions

marz282202, CanSaribal2076, OFrazK610, VINUra92
Report a bug