Men In Black 3

seeders: 0
leechers: 5
Added on Jul 2, 2012 by shaileshneha217 in Movies > Highres Movies
Torrent verified. Downloaded 139 times.

Men In Black 3 (Size: 1.39 GB)
  Men.In.Black.3.HDTS.READNFO.V2-Voltage.avi 1.37 GB
  sample.avi 15.17 MB
  Voltage.nfo 10.41 KB

Description

Video
ID: 0
Format: MPEG-4 Visual
Format profile: Advanced Simple@L5
Format settings, BVOP: 2
Format settings, QPel: No
Format settings, GMC: No warppoints
Format settings, Matrix: Default (MPEG)
Muxing mode: Packed bitstream
Codec ID: XVID
Codec ID/Hint: XviD
Duration: 1h 38mn
Bit rate: 1 800 Kbps
Width: 720 pixels
Height: 352 pixels
Display aspect ratio: 2.045
Frame rate: 29.970 fps
Color space: YUV
Chroma subsampling: 4:2:0
Bit depth: 8 bits
Scan type: Progressive
Compression mode: Lossy
Bits/(Pixel*Frame): 0.237
Stream size: 1.23 GiB (90%)
Writing library: XviD 64


Audio
ID: 1
Format: MPEG Audio
Format version: Version 1
Format profile: Layer 3
Codec ID: 55
Codec ID/Hint: MP3
Duration: 1h 38mn
Bit rate mode: Constant
Bit rate: 192 Kbps
Channel(s): 2 channels
Sampling rate: 44.1 KHz
Compression mode: Lossy
Stream size: 135 MiB (10%)
Alignment: Split accross interleaves
Interleave, duration: 33 ms (1.00 video frame)
Interleave, preload duration: 500 ms [

Related Torrents

torrent name size files age seed leech

Sharing Widget


Download torrent
1.39 GB
seeders:0
leechers:5
Men In Black 3

Trackers

tracker name Status checked seeders leechers downloads
udp://tracker.publicbt.com:80/announce
outdated 12 Jul 2012 - - -
udp://tracker.openbittorrent.com:80/announce
outdated 12 Jul 2012 - - -
http://tracker.istole.it/announce
outdated 12 Jul 2012 - - -
udp://tracker.1337x.org:80/announce
outdated 12 Jul 2012 - - -
udp://tracker.istole.it:80/announce
outdated 12 Jul 2012 - - -
http://exodus.desync.com:6969/announce
blocked 23 Aug 2012 - - -
http://tracker.publicbt.com/announce
deleted 11 Mar 2013 - - -
udp://fr33domtracker.h33t.com:3310/announce
deleted 12 Jul 2012 - - -
http://www.speed.cd:2727/0ab0144bfe05d110003f6c18570a2800/announce
pending 12 Jul 2012 25 0 139
µTorrent compatible trackers list

Locations

name
KickassTorrents
Torrent hash: 2F71ACBC18A72549B112A4564DB9581B12CB502A

All Comments

audio
8/10
video
8/10
please, leave only comments related to that torrent
or sign-in
0
trippinlike1532 • 02 July 2012, 20:17
torrent downloaded
Show comment
audio: 8video: 8
kinda dark but not bad for a TS thanx:)
0
anonymous • 02 July 2012, 19:15 Show comment
spam
0
shozzee36121 • 02 July 2012, 12:23
torrent downloaded
Show comment
vuze showing no seeders...yet site showing 17...sad
0
anonymous • 02 July 2012, 08:56 Show comment
Is it fake????
0
cannabispony16.83K • 02 July 2012, 04:45 Show comment
audio: 9video: 9
Thx.
And paul909
This movie is not a FAKE.

User Opinions

Report a bug