Men in Black 3 2012 BRRip 1080p[6ch Audio English Hindi Tamil Telugu]x264-ViZNU[P2PDL]

seeders: 3
leechers: 2
Added on Sep 9, 2012 by ValidusVyto13.28K in Movies > Dubbed Movies
Torrent verified. Downloaded 1,869 times.

Men in Black 3 2012 BRRip 1080p[6ch Audio English Hindi Tamil Telugu]x264-ViZNU[P2PDL] (Size: 2.71 GB)
  Cover, Screens & Sample
  Men.in.Black.3.2012.BRRip.1080p[6ch.Audio.English.Hindi.Tamil.Telugu]x264-ViZNU[P2PDL].mkv 2.65 GB
  info.txt 14.09 KB
  Torrent downloaded from TinyM.eu.txt 301 bytes
  Torrent downloaded from p2pdl.com.txt 33 bytes

Description

image


Release Title: Men in Black 3 (2012)


Genre: Action | Comedy | Sci-Fi
IMDb Rating: 7.1/10 http://www.imdb.com/title/tt1409024/


Plot: Agent J travels in time to MIB's early years in the 1960s, to stop an alien from assassinating his friend Agent K and changing history.


Director: Barry Sonnenfeld


Stars: Will Smith, Tommy Lee Jones and Josh Brolin.


Rated: PG-13 for sci-fi action violence, and brief suggestive content.



General
Format : Matroska
Format version : Version 2
File size : 2.65 GiB
Duration : 1h 45mn
Overall bit rate : 3 584 Kbps
Movie name : Men.in.Black.3.2012.BRRip.1080p[6ch.Audio.English.Hindi.Tamil.Telugu]x264-ViZNU[P2PDL]
Video Source : HighCode-PHD(thanks)
Audio Source : HDCLUB(Thanks)



Video
ID : 1
Format : AVC
Format/Info : Advanced Video Codec
Codec ID : V_MPEG4/ISO/AVC
Duration : 1h 45mn
Bit rate : 1 792 Kbps
Width : 1 920 pixels
Height : 1 040 pixels
Display aspect ratio : 1.85:1
Frame rate : 23.976 fps
Color space : YUV
Chroma subsampling : 4:2:0
Bit depth : 8 bits
Scan type : Progressive
Bits/(Pixel*Frame) : 0.037
Stream size : 1.27 GiB (48%)
Writing library : x264 core 125 r2200 999b753
Default : Yes
Forced : No



Audio #1
ID : 2
Format : AC-3
Format/Info : Audio Coding 3
Mode extension : CM (complete main)
Format settings, Endianness : Big
Muxing mode : Header stripping
Codec ID : A_AC3
Duration : 1h 45mn
Bit rate mode : Constant
Bit rate : 448 Kbps
Channel(s) : 6 channels
Channel positions : Front: L C R, Side: L R, LFE
Sampling rate : 44.1 KHz
Bit depth : 16 bits
Compression mode : Lossy
Stream size : 339 MiB (12%)
Language : English
Default : Yes
Forced : No



Audio #2
ID : 3
Format : AC-3
Format/Info : Audio Coding 3
Mode extension : CM (complete main)
Format settings, Endianness : Big
Muxing mode : Header stripping
Codec ID : A_AC3
Duration : 1h 45mn
Bit rate mode : Constant
Bit rate : 448 Kbps
Channel(s) : 6 channels
Channel positions : Front: L C R, Side: L R, LFE
Sampling rate : 44.1 KHz
Bit depth : 16 bits
Compression mode : Lossy
Stream size : 339 MiB (12%)
Language : Hindi
Default : No
Forced : No



Audio #3
ID : 4
Format : AC-3
Format/Info : Audio Coding 3
Mode extension : CM (complete main)
Format settings, Endianness : Big
Muxing mode : Header stripping
Codec ID : A_AC3
Duration : 1h 45mn
Bit rate mode : Constant
Bit rate : 448 Kbps
Channel(s) : 6 channels
Channel positions : Front: L C R, Side: L R, LFE
Sampling rate : 44.1 KHz
Bit depth : 16 bits
Compression mode : Lossy
Stream size : 339 MiB (12%)
Language : Tamil
Default : No
Forced : No



Audio #4
ID : 5
Format : AC-3
Format/Info : Audio Coding 3
Mode extension : CM (complete main)
Format settings, Endianness : Big
Muxing mode : Header stripping
Codec ID : A_AC3
Duration : 1h 45mn
Bit rate mode : Constant
Bit rate : 448 Kbps
Channel(s) : 6 channels
Channel positions : Front: L C R, Side: L R, LFE
Sampling rate : 44.1 KHz
Bit depth : 16 bits
Compression mode : Lossy
Stream size : 339 MiB (12%)
Language : Telugu
Default : No
Forced : No



Subtitle : No



Screens:


image image image image image image image image image image


Sample:


http://t72.in/BKNEZ


------------------------------------------------------------------------


Recommend you to use VLC player. Check sample to be sure. Enjoy!


Greets to: srkfan, Vitamin_X, MgB, Feel_Free, staff members at ExtraTorrent, TPB, H33T, KAT, 1337x, PublicHD, Ahashare,
SilverTorrent, TorrentMafia, P2PDL, and all others


Encoder Notes: Looking For Early Access To Anything You Can Provide DVDScr, R5, DVDRips, BluRay, Direct Audio, Early Music
Releases, Seedboxes, Links, Dedicated Servers anything u can provide, Advance / Promo CDs/DVDs. If You Got anything to
offer contact me at "contact@tinym.eu"



Facebook Group: http://www.facebook.com/groups/489764764372211/

Facebook Fan Page: http://www.facebook.com/p2pdl

Related Torrents

torrent name size files age seed leech

Sharing Widget


Download torrent
2.71 GB
seeders:3
leechers:2
Men in Black 3 2012 BRRip 1080p[6ch Audio English Hindi Tamil Telugu]x264-ViZNU[P2PDL]

Trackers

tracker name Status checked seeders leechers downloads
udp://9.rarbg.com:2710/announce
outdated 10 Mar 2013 - - -
http://ipv4.tracker.harry.lu/announce
outdated 10 Mar 2013 - - -
udp://tracker.openbittorrent.com:80/announce
outdated 10 Mar 2013 - - -
http://tracker.ex.ua/announce
outdated 10 Mar 2013 - - -
udp://tracker.publicbt.com:80/announce
outdated 10 Mar 2013 - - -
udp://tracker.istole.it:80/announce
outdated 10 Mar 2013 - - -
udp://tracker.ccc.de:80/announce
deleted 10 Mar 2013 - - -
udp://fr33domtracker.h33t.com:3310/announce
deleted 10 Mar 2013 - - -
http://tracker.publichd.eu/announce
pending 10 Mar 2013 0 0 0
udp://p2pdl.com:2710/announce
pending 10 Mar 2013 2 0 562
µTorrent compatible trackers list

Locations

name
KickassTorrents
Torrent hash: 519212DACE45D1609FCD535B1DAC25D1C4D7B098

All Comments

audio
8/10
video
8/10
please, leave only comments related to that torrent
or sign-in
0
jiraju784 • 06 December 2012, 17:54 Show comment
audio: 8video: 8
thanks...
0
dhamm28 • 24 November 2012, 13:50
torrent downloaded
Show comment
audio: 7video: 8
0
CERB3582 • 17 November 2012, 04:07
torrent downloaded
Show comment
audio: 10video: 10
0
Teh_Reh_Rooster350 • 21 October 2012, 12:30
torrent downloaded
Show comment
audio: 8video: 8
Thanks, good quality, no sound or video issues. Only plays in VCL player though.
0
Mr.Assho82 • 10 October 2012, 02:15
torrent downloaded
Show comment
Ok Print,i rather wait HD

User Opinions

Report a bug