Meet.Monica.Velour.2010.LIMITED 480p.BRRip.XviD.Ac3.Feel-Free

seeders: 0
leechers: 4
Added on Aug 10, 2011 by feel-free20.03K in Movies
Torrent verified. Downloaded once.

Available in versions: HDRiPDVDRip
Meet.Monica.Velour.2010.LIMITED 480p.BRRip.XviD.Ac3.Feel-Free (Size: 1.27 GB)
  1c873d.jpg 54.77 KB
  Meet.Monica.Velour.2010.LIMITED 480p.BRRip.XviD.Ac3. 2.86 KB
  Meet.Monica.Velour.2010.LIMITED 480p.BRRip.XviD.Ac3.Feel-Free.avi 1.26 GB
  Torrent downloaded from extratorrent.com.txt 171 bytes
  vlcsnap-00002.png 305.94 KB
  vlcsnap-00003.png 448.13 KB
  vlcsnap-00004.png 313.57 KB

Description

image



Genre: Comedy | Drama | Romance
Language:English
IMDb:http://www.imdb.com/title/tt1291549/
Source:LIMITED.720p.BluRay.x264-PSYCHD Thanks!

Format : AVI
Format/Info : Audio Video Interleave
File size : 1.26 GiB
Duration : 1h 37mn
Overall bit rate : 1 861 Kbps

Video
ID : 0
Format : MPEG-4 Visual
Format profile : Advanced Simple@L5
Format settings, BVOP : Yes
Format settings, QPel : No
Format settings, GMC : No warppoints
Format settings, Matrix : Default (H.263)
Codec ID : XVID
Codec ID/Hint : XviD
Duration : 1h 37mn
Bit rate : 1 403 Kbps
Width : 640 pixels
Height : 360 pixels
Display aspect ratio : 16:9
Frame rate : 23.976 fps
Color space : YUV
Chroma subsampling : 4:2:0
Bit depth : 8 bits
Scan type : Progressive
Bits/(Pixel*Frame) : 0.254
Stream size : 977 MiB (75%)
Writing library : XviD 1.2.1 (UTC 2008-12-04)

Audio
ID : 1
Format : AC-3
Format/Info : Audio Coding 3
Mode extension : CM (complete main)
Codec ID : 2000
Duration : 1h 37mn
Bit rate mode : Constant
Bit rate : 448 Kbps
Channel(s) : 6 channels
Channel positions : Front: L C R, Side: L R, LFE
Sampling rate : 48.0 KHz
Bit depth : 16 bits
Stream size : 312 MiB (24%)
Alignment : Aligned on interleaves
Interleave, duration : 42 ms (1.00 video frame)
Interleave, preload duration : 512 ms


Plot:
When an awkward teen meets his favorite porn star, whose career peaked in the '80s, an unexpected friendship follows as the young man gets a glimpse inside Monica Velour's current life as a single mom struggling to make ends meet

TRAILER:
[embed=youtube]http://www.youtube.com/watch?v=t7JTo_hwKaY[/embed]

image
image
image

Greets:

INK,CRYS,IMAGINE,LKRG,FXG,3Li,FLAWL3SS,TA,iLLUSiON,ViSiON,DTRG SAFCuk009,LU,TheFalcon007,MYSTiC,PrisM,Noir,WBZ,LAP,Rx,Kingdom,SAFCuk009+Fabreezy,HDLiTE,TWiZTED,ExtraTorrentRG.ELEKTRI4KA,MAGNAT,CM8
And to all the other p2p grps past and present




Thanks to all who promotes release Feel-Free !!!

Sharing Widget


Download torrent
1.27 GB
seeders:0
leechers:4
Meet.Monica.Velour.2010.LIMITED 480p.BRRip.XviD.Ac3.Feel-Free

Trackers

tracker name Status checked seeders leechers downloads
udp://tracker.openbittorrent.com:80/announce
outdated 29 Jul 2014 - - -
udp://tracker.publicbt.com:80/announce
outdated 29 Jul 2014 - - -
udp://tracker.istole.it:80/announce
outdated 29 Jul 2014 - - -
http://10.rarbg.com/announce
private 09 May 2012 - - -
http://pow7.com/announce
outdated 09 May 2012 - - -
http://tracker.istole.it/announce
outdated 26 Oct 2011 - - -
http://tracker.openbittorrent.com/announce
outdated 10 Aug 2011 - - -
http://tracker.publicbt.com/announce
deleted 11 Mar 2013 - - -
http://9.rarbg.com:2710/announce
private 10 Aug 2011 - - -
http://tracker.novalayer.org:6969/announce
pending 10 Aug 2011 0 0 0
ĀµTorrent compatible trackers list

Locations

name
KickassTorrents
ExtraTorrent
ThePirateBay
Limetorrents
Torrent hash: 455A709798673710FEAE50E2EB7FB6DB2040B6B1

All Comments

audio
0/10
video
0/10
please, leave only comments related to that torrent
or sign-in
0
anonymous • 10 August 2011, 22:01 Show comment
I'm Uta (petite redhead in the Frankenbooty scene) in this!!!! :D
0
anonymous • 13 August 2011, 18:11 Show comment
now i haVE TO WATCH THIS :P

User Opinions

Report a bug