Mars Hill- Real Marriage Series [HD]

seeders: 0
leechers: 2
Added on May 15, 2012 by Soulj4h43 in TV
Downloaded 0 times.

Mars Hill- Real Marriage Series [HD] (Size: 13.03 GB)
  Mars Hill- Real Marriage
  01.Real Marriage.New Marriage, Same Spouse.m4v 2.06 GB
  02.Real Marriage.Friends With Benefits.m4v 1.23 GB
  03.Real Marriage.Men and Marriage.m4v 1.24 GB
  04.Real Marriage.The Respectful Wife.m4v 1.06 GB
  05.Real Marriage.Taking Out the Trash.m4v 1.13 GB
  06.Real Marriage.Sex: God, Gross, or Gift?.m4v 1.1 GB
  07.Real Marriage.Disgrace and Grace.m4v 1.11 GB
  08.Real Marriage.The Porn Path.m4v 1.18 GB
  09.Real Marriage.Selfish Lovers and Servant Lovers.m4v 1.06 GB
  10.Real Marriage.Can We--------.m4v 1.05 GB
  11.Real Marriage.Reverse Engineer Your Life and Marriage.m4v 821.04 MB

Description

image

This is not your average sermon series on marriage. We won’t give you five steps to happiness. We won’t talk about sex in code. We won’t talk about how you can fix your marriage. No, this is a sermon series about Jesus—and what he has to say about marriage through the Bible.

Note- This sermon series complements the book that is also out.

Sample technical information:

General

Format : MPEG-4
Format profile : QuickTime
Codec ID : qt
File size : 2.06 GiB
Duration : 1h 3mn
Overall bit rate : 4 610 Kbps
Encoded date : UTC 2012-01-10 19:41:03
Tagged date : UTC 2012-01-10 23:39:28
Writing library : Apple QuickTime
Media/UUID : 0DA352AE-1BF5-48E2-9BE3-C3670CDEDAC3
Media/History/UUID : 0EA78ACE-F52B-4F18-9BFD-33A8A03A7F9E

Video

ID : 1
Format : AVC
Format/Info : Advanced Video Codec
Format profile : Main@L3.1
Format settings, CABAC : No
Format settings, ReFrames : 2 frames
Format settings, GOP : M=2, N=24
Codec ID : avc1
Codec ID/Info : Advanced Video Coding
Duration : 1h 3mn
Bit rate : 4 470 Kbps
Width : 1 248 pixels
Original width : 1 280 pixels
Height : 702 pixels
Original height : 720 pixels
Display aspect ratio : 16:9
Frame rate mode : Constant
Frame rate : 23.976 fps
Color space : YUV
Chroma subsampling : 4:2:0
Bit depth : 8 bits
Scan type : Progressive
Bits/(Pixel*Frame) : 0.213
Stream size : 2.00 GiB (97%)
Language : English
Encoded date : UTC 2012-01-10 23:36:09
Tagged date : UTC 2012-01-10 23:39:28
Material_Duration : 3839378
Material_StreamSize : 2145107141
Material_FrameCount : 92053
Color primaries : BT.709-5, BT.1361, IEC 61966-2-4, SMPTE RP177
Transfer characteristics : BT.709-5, BT.1361
Matrix coefficients : BT.709-5, BT.1361, IEC 61966-2-4 709, SMPTE RP177

Audio

ID : 2
Format : AAC
Format/Info : Advanced Audio Codec
Format profile : LC
Codec ID : 40
Duration : 1h 3mn
Bit rate mode : Constant
Bit rate : 135 Kbps
Nominal bit rate : 160 Kbps
Channel(s) : 2 channels
Channel positions : Front: L R
Sampling rate : 48.0 KHz
Compression mode : Lossy
Stream size : 61.9 MiB (3%)
Language : English
Encoded date : UTC 2012-01-10 23:36:09
Tagged date : UTC 2012-01-10 23:39:28
Material_Duration : 3839424
Material_StreamSize : 64943338

Related Torrents

torrent name size files age seed leech

Sharing Widget


Download torrent
13.03 GB
seeders:0
leechers:2
Mars Hill- Real Marriage Series [HD]

Trackers

tracker name Status checked seeders leechers downloads
udp://tracker.istole.it:80/announce
outdated 11 Apr 2014 - - -
udp://tracker.publicbt.com:80/announce
outdated 11 Apr 2014 - - -
udp://tracker.openbittorrent.com:80/announce
outdated 11 Apr 2014 - - -
http://tracker.istole.it/announce
outdated 20 May 2012 - - -
udp://tracker.1337x.org:80/announce
outdated 20 May 2012 - - -
http://exodus.desync.com:6969/announce
blocked 22 Aug 2012 - - -
http://tracker.publicbt.com/announce
deleted 20 May 2012 - - -
udp://fr33domtracker.h33t.com:3310/announce
deleted 20 May 2012 - - -
µTorrent compatible trackers list

Locations

name
KickassTorrents
Torrent hash: 9A51D2A01B1437A1555305EE43C8A9B6C52DCADC

All Comments

audio
0/10
video
0/10
please, leave only comments related to that torrent
or sign-in
Report a bug