Madagascar 3 Europes Most Wanted 2012 DVDRip XViD movieSEEkz

seeders: 2
leechers: 0
Added on Oct 12, 2012 by movieSEEkz2036 in Movies
Torrent verified. Downloaded 10 times.

Madagascar 3 Europes Most Wanted 2012 DVDRip XViD movieSEEkz (Size: 709.04 MB)
  sub
  Madagascar.3.Europes.Most.Wanted.2012.DVDRip.XViD-movieSEEkz.avi 708.44 MB
  Madagascar.3.Europes.Most.Wanted.2012.DVDRip.XViD-movieSEEkz_Snapshot.jpg 218.98 KB
  file info.txt 463 bytes

Description

image
General
Complete name :Madagascar.3.Europes.Most.Wanted.2012.DVDRip.XViD-movieSEEkz.avi
Format : AVI
Format/Info : Audio Video Interleave
File size : 708 MiB
Duration : 1h 33mn
Overall bit rate mode : Variable
Overall bit rate : 1 060 Kbps
Writing application : VirtualDubMod 1.5.4.1 (build 2178/release)
Writing library : VirtualDubMod build 2178/release
Video
ID : 0
Format : MPEG-4 Visual
Format profile : Advanced Simple@L5
Format settings, BVOP : 1
Format settings, QPel : No
Format settings, GMC : No warppoints
Format settings, Matrix : Custom
Codec ID : XVID
Codec ID/Hint : XviD
Duration : 1h 33mn
Bit rate : 931 Kbps
Width : 640 pixels
Height : 368 pixels
Display aspect ratio : 1.739
Frame rate : 25.000 fps
Color space : YUV
Chroma subsampling : 4:2:0
Bit depth : 8 bits
Scan type : Progressive
Compression mode : Lossy
Bits/(Pixel*Frame) : 0.158
Stream size : 622 MiB (88%)
Writing library : XviD 64
Audio
ID : 1
Format : MPEG Audio
Format version : Version 1
Format profile : Layer 3
Mode : Joint stereo
Mode extension : MS Stereo
Codec ID : 55
Codec ID/Hint : MP3
Duration : 1h 33mn
Bit rate mode : Variable
Bit rate : 116 Kbps
Nominal bit rate : 128 Kbps
Channel(s) : 2 channels
Sampling rate : 48.0 KHz
Compression mode : Lossy
Stream size : 77.8 MiB (11%)
Alignment : Aligned on interleaves
Interleave, duration : 24 ms (0.60 video frame)
Interleave, preload duration : 158 ms
Writing library : LAME3.98r
Encoding settings : -m j -V 4 -q 2 -lowpass 17 --abr 128
Language : English

image
image
image

Related Torrents

torrent name size files age seed leech

Sharing Widget


Download torrent
709.04 MB
seeders:2
leechers:0
Madagascar 3 Europes Most Wanted 2012 DVDRip XViD movieSEEkz

Trackers

tracker name Status checked seeders leechers downloads
udp://tracker.openbittorrent.com:80/announce
outdated 05 Jan 2014 - - -
udp://tracker.publicbt.com:80/announce
outdated 05 Jan 2014 - - -
udp://tracker.istole.it:80/announce
outdated 29 Apr 2013 - - -
udp://tracker.ccc.de:80/announce
outdated 29 Apr 2013 - - -
udp://tracker.1337x.org:80/announce
outdated 29 Apr 2013 - - -
http://exodus.desync.com:6969/announce
blocked 29 Apr 2013 - - -
udp://fr33dom.h33t.com:3310/announce
deleted 29 Apr 2013 - - -
udp://fr33domtracker.h33t.com:3310/announce
deleted 29 Apr 2013 - - -
ĀµTorrent compatible trackers list

Locations

name author
KickassTorrents movieSEEkz
Torrent hash: 6277FE5A94FFFD3648409DCF0510405A65E44D7F

All Comments

audio
9/10
video
9/10
please, leave only comments related to that torrent
or sign-in
0
anonymous • 27 March 2013, 04:27 Show comment
audio: 10video: 10
0
jfr1574 • 10 January 2013, 11:59
torrent downloaded
Show comment
audio: 9video: 9
Great D/L & movie

User Opinions

Report a bug