Madagascar 3 Europe's Most Wanted 2012 CAM READNFO XVID-26K

seeders: 5
leechers: 1
Added on Jun 11, 2012 by Samtapes38925 in Movies
Torrent verified. Downloaded 50 times.

Madagascar 3 Europe's Most Wanted 2012 CAM READNFO XVID-26K (Size: 1.37 GB)
  1.png 504.92 KB
  2.png 328.61 KB
  26k nfo.nfo 3.96 KB
  3.png 337.95 KB
  4.png 492.19 KB
  Madagascar.3.Europe's.Most.Wanted.2012.CAM.READNFO.XVID-26K.avi 1.37 GB
  Madagascar.3.Europe's.Most.Wanted.2012.CAM.READNFO.XVID-26K.jpg 192.43 KB

Description

wrong image
screen shots
wrong image
Genre Animation, Adventure, Comedy
Actors Ben Stiller, Jada Pinkett Smith, Chris Rock
Plot Alex, Marty, Gloria and Melman are still fighting to get home to their beloved Big Apple. Their journey takes them through Europe where they find the perfect cover: a traveling circus, which they reinvent - Madagascar style.
Video
ID: 0
Format: MPEG-4 Visual
Format profile: Advanced Simple@L5
Format settings, BVOP: 2
Format settings, QPel: No
Format settings, GMC: No warppoints
Format settings, Matrix: Default (H.263)
Muxing mode: Packed bitstream
Codec ID: XVID
Codec ID/Hint: XviD
Duration: 1h 21mn
Bit rate: 2 279 Kbps
Width: 720 pixels
Height: 400 pixels
Display aspect ratio: 16:9
Frame rate: 25.000 fps
Color space: YUV
Chroma subsampling: 4:2:0
Bit depth: 8 bits
Scan type: Progressive
Compression mode: Lossy
Bits/(Pixel*Frame): 0.317
Stream size: 1.29 GiB (94%)
Writing library: XviD 1.2.1 (UTC 2008-12-04)
Audio
ID: 1
Format: MPEG Audio
Format version: Version 1
Format profile: Layer 3
Mode: Joint stereo
Mode extension: MS Stereo
Codec ID: 55
Codec ID/Hint: MP3
Duration: 1h 21mn
Bit rate mode: Constant
Bit rate: 128 Kbps
Channel(s): 2 channels
Sampling rate: 44.1 KHz
Compression mode: Lossy
Stream size: 74.3 MiB (5%)
Alignment: Split accross interleaves
Interleave, duration: 40 ms (1.00 video frame)
Writing library: LAME3.98r

Related Torrents

torrent name size files age seed leech

Sharing Widget


Download torrent
1.37 GB
seeders:5
leechers:1
Madagascar 3 Europe's Most Wanted 2012 CAM READNFO XVID-26K

Trackers

tracker name Status checked seeders leechers downloads
udp://tracker.publicbt.com:80/announce
outdated 11 Jun 2012 - - -
udp://tracker.openbittorrent.com:80/announce
outdated 11 Jun 2012 - - -
http://tracker.istole.it/announce
outdated 11 Jun 2012 - - -
udp://tracker.1337x.org:80/announce
outdated 11 Jun 2012 - - -
udp://tracker.istole.it:80/announce
outdated 11 Jun 2012 - - -
http://exodus.desync.com:6969/announce
blocked 22 Aug 2012 - - -
http://tracker.publicbt.com/announce
deleted 11 Mar 2013 - - -
udp://fr33domtracker.h33t.com:3310/announce
deleted 11 Jun 2012 - - -
http://www.scenetime.com:4000/00781a6cc44c8bfabec74c22af1ed154/announce
pending 11 Jun 2012 41 6 50
ĀµTorrent compatible trackers list

Locations

name author
KickassTorrents tapessam
Torrent hash: B833F614D070CDD471421DD6BC0A8D55A416E6A1

All Comments

audio
5/10
video
5/10
please, leave only comments related to that torrent
or sign-in
1
Iram_Miranda1593 • 12 June 2012, 16:40
torrent downloaded
Show comment
audio: 5video: 5
russian cam not good,
1
sagon52813 • 11 June 2012, 22:25
torrent downloaded
Show comment
end is missing

User Opinions

Report a bug