Love Happens 2009 DVDRip XviD-Emery

seeders: 5
leechers: 0
Added on Jan 22, 2010 in Movies
Torrent verified. Downloaded 10 times.

Summary:
A widower whose book about coping with loss turns him into a best-selling self-help guru, falls for the hotel florist where his seminar is given, only to learn that he hasn't yet truly confronted his wife's passing.
Submitted by phoenix6619673
report summary
Love Happens 2009 DVDRip XviD-Emery (Size: 704.96 MB)
  Love.Happens.2009.DVDRip.XviD-Emery.avi 704.96 MB
  emery.nfo 3.98 KB

Description

General
Complete name : Love.Happens.2009.DVDRip.XviD-Emery.avi
Format : AVI
Format/Info : Audio Video Interleave
File size : 705 MiB
Duration : 1h 49mn
Overall bit rate : 904 Kbps
Writing application : VirtualDubMod 1.5.10.2 (build 2540/release)
Writing library : VirtualDubMod build 2540/release

Video
ID : 0
Format : MPEG-4 Visual
Format profile : AdvancedSimple@L5
Format settings, BVOP : Yes
Format settings, QPel : No
Format settings, GMC : No warppoints
Format settings, Matrix : Default (H.263)
Muxing mode : Packed bitstream
Codec ID : XVID
Codec ID/Hint : XviD
Duration : 1h 49mn
Bit rate : 766 Kbps
Width : 608 pixels
Height : 320 pixels
Display aspect ratio : 1.900
Frame rate : 23.976 fps
Resolution : 24 bits
Colorimetry : 4:2:0
Scan type : Progressive
Bits/(Pixel*Frame) : 0.164
Stream size : 598 MiB (85%)
Writing library : XviD 1.2.1 (UTC 2008-12-04)

Audio
ID : 1
Format : MPEG Audio
Format version : Version 1
Format profile : Layer 3
Codec ID : 55
Codec ID/Hint : MP3
Duration : 1h 49mn
Bit rate mode : Constant
Bit rate : 128 Kbps
Channel(s) : 2 channels
Sampling rate : 48.0 KHz
Resolution : 16 bits
Stream size : 99.9 MiB (14%)
Alignment : Aligned on interleaves
Interleave, duration : 42 ms (1.00 video frame)
Interleave, preload duration : 504 ms

Sharing Widget


Download torrent
704.96 MB
seeders:5
leechers:0
Love Happens 2009 DVDRip XviD-Emery

Trackers

tracker name Status checked seeders leechers downloads
udp://tracker.openbittorrent.com:80/announce
active 19 Oct 2014 5 0 10
udp://tracker.publicbt.com:80/announce
active 19 Oct 2014 3 0 10
http://tracker.openbittorrent.com/announce
outdated 26 Nov 2012 - - -
http://tracker.publicbt.com/announce
deleted 11 Mar 2013 - - -
ĀµTorrent compatible trackers list

Locations

name
ThePirateBay
ExtraTorrent
Torrent hash: 25b646713f48f09f8ed06df34a217a0afd63dbba

Top Comments

2
sexily397 • 28 Jul 2010, 23:43
torrent downloaded
audio: 10video: 10

All Comments

audio
9/10
video
9/10
please, leave only comments related to that torrent
or sign-in
0
vicky.das1209471 • 08 June 2014, 12:25
torrent downloaded
Show comment
audio: 9video: 9
thank you very nice movie and good quality
0
Bellaroo660 • 03 March 2014, 10:49
torrent downloaded
Show comment
Thanks! :D
1
Hellrocker471080 • 07 February 2013, 08:31
torrent downloaded
Show comment
great torrent
a kiss to uploader :)
0
fonggay63 • 29 November 2012, 21:26
torrent downloaded
Show comment
I love kick ass!!! thanks uploader!!
0
anonymous • 27 September 2012, 02:43 Show comment
audio sucks... no voices... wth?
0
aw3s0m35439 • 14 September 2012, 01:16
torrent downloaded
Show comment
audio: 8video: 8
Good AV ... thanks uploader n seeders ... tongue
Show More

User Opinions

Dankestbuds1350, scipio314778, bentorr403, wazs287, rathead1175, kimimimi172, saso22117, ismaeel105, sir andy96, VidaX71 ... And 115 more
ghadir548
Report a bug