Limitless 2011 [Eng] PROPER DVDRip XviD - {RedDragon}

seeders: 151
leechers: 24
Added on Aug 30, 2011 by Superion10371 in Movies
Torrent verified. Downloaded 10 times.

Limitless 2011 [Eng] PROPER DVDRip XviD - {RedDragon} (Size: 712.71 MB)
  Sample
  SCREEN'S
  [Dutch] Subs
  Limitless 2011 PROPER DVDRip XviD - {RedDragon}.avi 700.64 MB
  limitless RedDragon.nfo 5.76 KB
  reddragon.txt 356 bytes

Description

Limitless 2011 PROPER DVDRip XviD - {RedDragon}

----------------------------------------------------------------------

SCREEN SHOTS.

image

image

image

image

image

image


------------------------------------------------------------------------

SEED After Download.


Thank You.


ENjOY.!!

-------------------------------------------------------------------------

http://www.imdb.com/title/tt1219289/
Subtitles: Dutch
Date: 2011.08

Director: Neil Burger

Genres: Mystery | Sci-Fi | Thriller

Plot:
An action-thriller about a writer who takes an experimental drug that allows him to use 100
percent of his mind. As one man evolves into the perfect version of himself, forces more
corrupt than he can imagine mark him for assassination. Out-of-work writer Eddie Morra's
(Cooper) rejection by girlfriend Lindy (Abbie Cornish) confirms his belief that he has zero
future. That all vanishes the day an old friend introduces Eddie to NZT, a designer
pharmaceutical that makes him laser focused and more confident than any man alive. Now on an
NZT-fueled odyssey, everything Eddie's read, heard or seen is instantly organized and
available to him. As the former nobody rises to the top of the financial world, he draws the
attention of business mogul Carl Van Loon (De Niro), who sees this enhanced version of Eddie
as the tool to make billions. But brutal side effects jeopardize his meteoric ascent. With a
dwindling stash and hit men who will eliminate him to get the NZT, Eddie must stay wired long
enough to elude capture and fulfill his destiny. If he can't, he will become just another
victim who thought he'd found invincibility in a bottle.

Cast:
Bradley Cooper ... Eddie Morra
Robert De Niro ... Carl Van Loon
Abbie Cornish ... Lindy
Andrew Howard ... Gennady
Anna Friel ... Melissa
Johnny Whitworth ... Vernon
Tomas Arana ... Man in Tan Coat
Robert John Burke ... Pierce
Darren Goldstein ... Kevin Doyle
Ned Eisenberg ... Morris Brandt
T.V. Carpio ... Valerie
Richard Bekins ... Hank Atwood
Patricia Kalember ... Mrs. Atwood
Cindy Katz ... Marla Sutton
Brian Anthony Wilson ... Detective (as Brian A. Wilson)

Stats:
Format : AVI
Format/Info : Audio Video Interleave
File size : 701 MiB
Duration : 1h 41mn
Overall bit rate : 968 Kbps
Writing application : Nandub v1.0rc2
Writing library : Nandub build 1852/release

Video
ID : 0
Format : MPEG-4 Visual
Format profile : Advanced Simple@L5
Format settings, BVOP : 2
Format settings, QPel : No
Format settings, GMC : No warppoints
Format settings, Matrix : Default (H.263)
Codec ID : XVID
Codec ID/Hint : XviD
Duration : 1h 41mn
Bit rate : 833 Kbps
Width : 624 pixels
Height : 256 pixels
Display aspect ratio : 2.40:1
Frame rate : 25.000 fps
Color space : YUV
Chroma subsampling : 4:2:0
Bit depth : 8 bits
Scan type : Progressive
Compression mode : Lossy
Bits/(Pixel*Frame) : 0.209
Stream size : 603 MiB (86%)
Writing library : XviD 64

Audio
ID : 1
Format : MPEG Audio
Format version : Version 1
Format profile : Layer 3
Mode : Joint stereo
Mode extension : MS Stereo
Codec ID : 55
Codec ID/Hint : MP3
Duration : 1h 41mn
Bit rate mode : Variable
Bit rate : 122 Kbps
Nominal bit rate : 128 Kbps
Channel(s) : 2 channels
Sampling rate : 48.0 KHz
Compression mode : Lossy
Stream size : 88.1 MiB (13%)
Alignment : Aligned on interleaves
Interleave, duration : 24 ms (0.60 video frame)
Interleave, preload duration : 470 ms
Writing library : LAME3.98r
Encoding settings : -m j -V 4 -q 3 -lowpass 17 --abr 128


-------------------------------------------------------------------------

Sharing Widget


Download torrent
712.71 MB
seeders:151
leechers:24
Limitless 2011 [Eng] PROPER DVDRip XviD - {RedDragon}

Trackers

tracker name Status checked seeders leechers downloads
udp://tracker.openbittorrent.com:80/announce
outdated 16 May 2014 - - -
udp://tracker.publicbt.com:80/announce
outdated 16 May 2014 - - -
udp://tracker.istole.it:80/announce
outdated 08 May 2014 - - -
http://t1.pow7.com/announce
outdated 13 Sep 2013 - - -
udp://tracker.1337x.org:80/announce
outdated 13 Sep 2013 - - -
http://tracker.csze.com/announce
outdated 13 Sep 2013 - - -
http://open.nyaatorrents.info:6544/announce
outdated 13 Sep 2013 - - -
udp://fr33domtracker.h33t.com:3310/announce
deleted 13 Sep 2013 - - -
http://tracker.novalayer.org:6969/announce
pending 13 Sep 2013 0 0 0
http://torrentforce.org:2710/announce
pending 13 Sep 2013 0 0 0
ĀµTorrent compatible trackers list

Locations

name
KickassTorrents
ThePirateBay
Limetorrents
Torrent hash: 569EF95FE34B6BD679CC8748533E319E7AC42444

All Comments

audio
8/10
video
9/10
please, leave only comments related to that torrent
or sign-in
0
JRuel185 • 06 March 2014, 16:12
torrent downloaded
Show comment
thanks a lot for this...!
0
TenthDoctor2566 • 01 February 2014, 10:17
torrent downloaded
Show comment
audio: 8video: 8
good dl
0
drula21 • 31 January 2014, 23:26
torrent downloaded
Show comment
audio: 10video: 10
0
rotaryhead28 • 24 January 2014, 01:34
torrent downloaded
Show comment
Thanks.
0
anonymous • 11 January 2014, 14:29 Show comment
audio: 10video: 10
Very good print.
0
harry_38891 • 05 January 2014, 17:55
torrent downloaded
Show comment
audio: 6video: 6
good in its format
0
matampuhin77 • 20 December 2013, 00:24
torrent downloaded
Show comment
audio: 9video: 9
Nice!!
0
siou1112167 • 11 December 2013, 22:46
torrent downloaded
Show comment
very nice ty
0
siou1112167 • 11 December 2013, 22:46
torrent downloaded
Show comment
audio: 9video: 9
very nice ty
0
jonniesjr42 • 12 November 2013, 21:33 Show comment
audio: 10video: 10
Def one of my all time top 100 favs...Almost immediately fell in love with Cooper's character...much alike a10v10 thnx uploader
Show More

User Opinions

Spectre23132, Atikiller21974, Trinity11003899, Emee.sb637, DracoPOL624, bentorr403, panzcherie340, richard56179, ajgad2764, Joshua Bauer15 ... And 327 more
Jimstar062078, Bachrocco1592, ntinaras706, EmiineeM485, chicothegreat245, calljuan149, kelejandro148, alle.146, pearmijo90, CharlieDftba20 ... And 4 more
Report a bug