Laurence Anyways 2012 BRRip AC3 HORiZON ArtSubs

seeders: 76
leechers: 10
Added on Nov 23, 2012 by noriegaRJ872 in Movies
Torrent verified. Downloaded 10 times.

Available in versions: 1080p720pBDRipHDRiPDVDRip
Laurence Anyways 2012 BRRip AC3 HORiZON ArtSubs (Size: 1.96 GB)
  Laurence.Anyways.2012.BRRip.AC3.HORiZON-ArtSubs.avi 1.95 GB
  Laurence.Anyways.2012.BRRip.AC3.HORiZON-ArtSubs.sub 10.11 MB
  Laurence.Anyways.2012.BRRip.AC3.HORiZON-ArtSubs.idx 175.94 KB

Description

imdb:http://www.imdb.com/title/tt1650048/

Subtitles: English and french

Rip Specs:

General
Complete name : Laurence.Anyways.2012.BRRip.AC3.HORiZON-ArtSubs.avi
Format : AVI
Format/Info : Audio Video Interleave
File size : 1.95 GiB
Duration : 2h 48mn
Overall bit rate : 1 660 Kbps
Writing application : FairUse Wizard - http://fairusewizard.com
Writing library : The best and REALLY easy backup tool

Video
ID : 0
Format : MPEG-4 Visual
Format profile : Advanced Simple@L5
Format settings, BVOP : 1
Format settings, QPel : No
Format settings, GMC : No warppoints
Format settings, Matrix : Default (MPEG)
Muxing mode : Packed bitstream
Codec ID : XVID
Codec ID/Hint : XviD
Duration : 2h 48mn
Bit rate : 1 202 Kbps
Width : 592 pixels
Height : 432 pixels
Display aspect ratio : 1.370
Frame rate : 23.976 fps
Color space : YUV
Chroma subsampling : 4:2:0
Bit depth : 8 bits
Scan type : Progressive
Compression mode : Lossy
Bits/(Pixel*Frame) : 0.196
Stream size : 1.41 GiB (72%)
Writing library : XviD 1.2.0.dev47 (UTC 2006-11-01)

Audio
ID : 1
Format : AC-3
Format/Info : Audio Coding 3
Mode extension : CM (complete main)
Codec ID : 2000
Duration : 2h 48mn
Bit rate mode : Constant
Bit rate : 448 Kbps
Channel(s) : 6 channels
Channel positions : Front: L C R, Side: L R, LFE
Sampling rate : 48.0 KHz
Bit depth : 16 bits
Compression mode : Lossy
Stream size : 538 MiB (27%)
Alignment : Split accross interleaves
Interleave, duration : 42 ms (1.00 video frame)
Interleave, preload duration : 500 ms

Sharing Widget


Download torrent
1.96 GB
seeders:76
leechers:10
Laurence Anyways 2012 BRRip AC3 HORiZON ArtSubs

Trackers

tracker name Status checked seeders leechers downloads
udp://tracker.openbittorrent.com:80/announce
outdated 09 Aug 2014 - - -
udp://tracker.publicbt.com:80/announce
outdated 09 Aug 2014 - - -
udp://tracker.istole.it:80/announce
outdated 09 Aug 2014 - - -
udp://fr33domtracker.h33t.com:3310/announce
deleted 11 Jul 2013 - - -
µTorrent compatible trackers list

Locations

name
KickassTorrents
Torrent hash: F1052006490383BAB7A84D385A465D9D65A837CE

All Comments

audio
8/10
video
8/10
please, leave only comments related to that torrent
or sign-in
0
sandflake1057 • 06 August 2014, 21:56
torrent downloaded
Show comment
audio: 9video: 9
thanks so much for the upload and the seeders
0
cvl742015 • 09 February 2014, 06:47 Show comment
audio: 8video: 8
thanks
0
anonymous • 19 March 2013, 00:48 Show comment
is this in french?
0
djnewmoneyuk153 • 11 March 2013, 13:39
torrent downloaded
Show comment
audio: 7video: 8
good movie
0
anonymous • 26 January 2013, 16:31 Show comment
very bad video quality
0
anonymous • 07 January 2013, 00:35 Show comment
subtitles?
0
cayiniic4265 • 03 December 2012, 22:24
torrent downloaded
Show comment
audio: 9video: 9
best copy out there, thanx
0
hilarleo112 • 24 November 2012, 11:32
torrent downloaded
Show comment
A wish upon a supastar, U R. Thnx for the Art
0
Mawu3n4932 • 23 November 2012, 22:10
torrent downloaded
Show comment
audio: 9video: 9
YOU SIR ARE THE GREATEST.
Excellent download, 720p quality.

User Opinions

cayiniic4265, champion0073394, darkooni3002, General Armorus2630, cvl742015, qbe767, 98forever585, fxrx360, xouzis151, tonow116 ... And 16 more
Report a bug