Larry Crowne 2011 V2 Fix XViD CAM DTRG

seeders: 1
leechers: 0
Added on Jul 23, 2011 by DTRG2761 in Movies
Torrent verified. Downloaded once.

Larry Crowne 2011 V2 Fix XViD CAM DTRG (Size: 1.42 GB)
  read me.txt 91 bytes
  Torrent downloaded from Demonoid.me.txt 46 bytes
  Larry Crowne 2011 V2 XViD CAM DTRG.avi 1.41 GB
  sample.avi 13.58 MB

Description


image



Format : AVI
Format/Info : Audio Video Interleave
File size : 1.41 GiB
Duration : 1h 33mn
Overall bit rate : 2 148 Kbps
Writing library : VirtualDub build 32842/release

Video
ID : 0
Format : MPEG-4 Visual
Format profile : Advanced Simple@L5
Format settings, BVOP : 2
Format settings, QPel : No
Format settings, GMC : No warppoints
Format settings, Matrix : Default (H.263)
Muxing mode : Packed bitstream
Codec ID : XVID
Codec ID/Hint : XviD
Duration : 1h 33mn
Bit rate : 2 008 Kbps
Width : 628 pixels
Height : 294 pixels
Display aspect ratio : 2.2:1
Frame rate : 25.000 fps
Color space : YUV
Chroma subsampling : 4:2:0
Bit depth : 8 bits
Scan type : Progressive
Compression mode : Lossy
Bits/(Pixel*Frame) : 0.435
Stream size : 1.32 GiB (93%)
Writing library : XviD 64

Audio
ID : 1
Format : MPEG Audio
Format version : Version 1
Format profile : Layer 3
Codec ID : 55
Codec ID/Hint : MP3
Duration : 1h 33mn
Bit rate mode : Constant
Bit rate : 128 Kbps
Channel(s) : 2 channels
Sampling rate : 44.1 KHz
Compression mode : Lossy
Stream size : 85.9 MiB (6%)
Alignment : Aligned on interleaves
Interleave, duration : 26 ms (0.65 video frame)
Interleave, preload duration : 522 ms
Writing library : LAME3.98.4






http://www.imdb.com/title/tt1583420/




image




Storyline

Until he was downsized, affable, amiable Larry Crowne (Hanks) was a superstar team leader at the big-box company where he's worked since his time in the Navy. Underwater on his mortgage and unclear on what to do with his suddenly free days, Larry heads to his local college to start over. There he becomes part of a colorful community of outcasts, also-rans and the overlooked all trying to find a better future for themselves...often moving around town in a herd of scooters. In his public-speaking class, Larry develops an unexpected crush on his teacher Mercedes Tainot (Roberts), who has lost as much passion for teaching as she has for her husband. The simple guy who has every reason to think his life has stalled will come to learn an unexpected lesson: when you think everything worth having has passed you by, you just might discover your reason to live.




image




image

image

image

image




Source Used



Russian vid ........ Thanks
Audio NoGrp .........Thanks




Enjoy





Greetz to IMAGiNE,Flawl3ss,DiLLoN,BDK,NOiR,TOXiC,THC,Ez,Rx,Boobyblue,TaRiQ786,BHRG

Related Torrents

torrent name size files age seed leech

Sharing Widget


Download torrent
1.42 GB
seeders:1
leechers:0
Larry Crowne 2011 V2 Fix XViD CAM DTRG

Trackers

tracker name Status checked seeders leechers downloads
udp://tracker.publicbt.com:80/announce
outdated 26 Nov 2012 - - -
udp://tracker.istole.it:80/announce
outdated 26 Nov 2012 - - -
udp://tracker.openbittorrent.com:80/announce
outdated 26 Nov 2012 - - -
udp://fr33domtracker.h33t.com:3310/announce
deleted 26 Nov 2012 - - -
udp://tracker.beeimg.com:6969/announce
pending 26 Nov 2012 0 0 0
ĀµTorrent compatible trackers list

Locations

name
KickassTorrents
ThePirateBay
Torrent hash: 3701B177498746BB79DD18C4057F510079662746

All Comments

audio
7/10
video
7/10
please, leave only comments related to that torrent
or sign-in
0
screamingviolet1120 • 28 August 2011, 03:21
torrent downloaded
Show comment
audio: 10video: 10
Perfect copy thx
0
anonymous • 30 July 2011, 20:08 Show comment
audio: 4video: 4
0
anonymous • 30 July 2011, 11:43 Show comment
audio: 8video: 7
watchable
0
anonymous • 26 July 2011, 20:53 Show comment
audio: 8video: 8
Very good for a cam thank you !!!
0
Fireman58444470 • 25 July 2011, 18:50
torrent downloaded
Show comment
audio: 8video: 8

User Opinions

Report a bug