La era del hielo 1 - AVM

seeders: 7
leechers: 0
Added on Jul 31, 2009 in Movies
Downloaded 5 times.

La era del hielo 1 - AVM (Size: 333.94 MB)
  La era del hielo 1.mp4 333.94 MB

Description

Título: La era del hielo 1 - AVM
Descripción

AVIDMobile - http://www.avidmobile.com.ar
Video
ID : 1
Format : MPEG-4 Visual
Format profile : Simple@L1
Format settings, BVOP : No
Format settings, QPel : No
Format settings, GMC : No warppoints
Format settings, Matrix : Default (H.263)
Codec ID : 20
Duration : 1h 21mn
Bit rate mode : Variable
Bit rate : 510 Kbps
Maximum bit rate : 2 644 Kbps
Width : 320 pixels
Height : 240 pixels
Display aspect ratio : 4/3
Frame rate mode : Variable
Frame rate : 23.976 fps
Minimum frame rate : 23.974 fps
Maximum frame rate : 23.981 fps
Resolution : 24 bits
Colorimetry : 4:2:0
Scan type : Progressive
Bits/(Pixel*Frame) : 0.277
Stream size : 296 MiB (89%)
Audio
ID : 2
Format : AAC
Format/Info : Advanced Audio Codec
Format version : Version 4
Format profile : LC
Format settings, SBR : No
Codec ID : 40
Duration : 1h 21mn
Bit rate mode : Variable
Bit rate : 62.9 Kbps
Maximum bit rate : 139 Kbps
Channel(s) : 2 channels
Channel positions : L R
Sampling rate : 22.05 KHz
Resolution : 16 bits
Stream size : 36.5 MiB (11%)

Related Torrents

torrent name size files age seed leech

Sharing Widget


Download torrent
333.94 MB
seeders:7
leechers:0
La era del hielo 1 - AVM

Trackers

tracker name Status checked seeders leechers downloads
http://tracker.ccc.de/announce
outdated 16 Oct 2012 - - -
http://tracker.openbittorrent.com/announce
outdated 05 Jul 2012 - - -
http://inferno.demonoid.com:3417/announce
error 04 Apr 2010 - - -
http://www.torrentsnipe.info:2701/announce
error 31 Jul 2009 - - -
µTorrent compatible trackers list

Locations

name
ThePirateBay
Bittorrent.am
SumoTorrent
Torrent hash: 9b94367c71838ef7e40e529b6c317f96b04b4605

All Comments

audio
0/10
video
0/10
please, leave only comments related to that torrent
or sign-in

User Opinions

Report a bug