Kung Fu Panda 2 2011 TS x264 Feel-Free

seeders: 26
leechers: 6
Added on May 28, 2011 in Movies
Torrent verified. Downloaded 9,447 times.

Kung Fu Panda 2 2011 TS x264 Feel-Free (Size: 968.62 MB)
  kung-fu-panda-2-w342.jpg 77.22 KB
  Kung.Fu.Panda.2.2011.TS.x264. 2.78 KB
  Kung.Fu.Panda.2.2011.TS.x264.Feel-Free.mp4 967.08 MB
  Torrent downloaded from extratorrent.com.txt 119 bytes
  vlcsnap-00001.png 263.49 KB
  vlcsnap-00002.png 333.98 KB
  vlcsnap-00003.png 233.87 KB
  vlcsnap-00004.png 245.56 KB
  vlcsnap-00005.png 425.52 KB

Description


image





Genre:Animation | Action | Adventure

Language:English

IMDb:http://www.imdb.com/title/tt1302011/

Source:Russian/EP1C Thanks!



Format : MPEG-4

Format profile : Base Media

Codec ID : isom

File size : 967 MiB

Duration : 1h 20mn

Overall bit rate : 1 670 Kbps



Video

ID : 1

Format : AVC

Format/Info : Advanced Video Codec

Format profile : High@L4.1

Format settings, CABAC : Yes

Format settings, ReFrames : 3 frames

Format settings, GOP : M=3, N=12

Codec ID : avc1

Codec ID/Info : Advanced Video Coding

Duration : 1h 20mn

Bit rate mode : Variable

Bit rate : 1 436 Kbps

Maximum bit rate : 6 671 Kbps

Width : 672 pixels

Height : 352 pixels

Display aspect ratio : 1.909

Frame rate mode : Constant

Frame rate : 25.000 fps

Color space : YUV

Chroma subsampling : 4:2:0

Bit depth : 8 bits

Scan type : Progressive

Bits/(Pixel*Frame) : 0.243

Stream size : 835 MiB (86%)

Writing library : x264



Audio

ID : 2

Format : AAC

Format/Info : Advanced Audio Codec

Format version : Version 4

Format profile : LC

Format settings, SBR : No

Codec ID : 40

Duration : 1h 20mn

Bit rate mode : Variable

Bit rate : 224 Kbps

Maximum bit rate : 241 Kbps

Channel(s) : 2 channels

Channel positions : Front: L R

Sampling rate : 48.0 KHz

Stream size : 130 MiB (13%)



Plot:

Po joins forces with a group of new kung-fu masters to take on an old enemy with a deadly new weapon



TRAILER:

[embed=youtube]http://www.youtube.com/watch?v=YdaMGcOyfjM&feature=player_embedded[/embed]



image

image

image

image

image



Greets:



INK,CRYS,IMAGINE,LKRG,FXG,3Li,FLAWL3SS,TA,iLLUSiON,ViSiON,DTRG SAFCuk009,LU,TheFalcon007,MYSTiC,PrisM,Noir,WBZ,LAP,Rx,Kingdom,SAFCuk009+Fabreezy,HDLiTE,TWiZTED,ExtraTorrentRG.ELEKTRI4KA,MAGNAT,CM8

And to all the other p2p grps past and present









Make sure its a real Feel-Free release @ http://extratorrent.com




Related Torrents

torrent name size files age seed leech

Sharing Widget


Download torrent
968.62 MB
seeders:26
leechers:6
Kung Fu Panda 2 2011 TS x264 Feel-Free

Trackers

tracker name Status checked seeders leechers downloads
http://tracker.ccc.de/announce
outdated 16 Oct 2012 - - -
http://10.rarbg.com/announce
private 09 May 2012 - - -
http://pow7.com/announce
outdated 09 May 2012 - - -
http://genesis.1337x.org:1337/announce
outdated 13 Jul 2011 - - -
http://exodus.1337x.org/announce
outdated 13 Jul 2011 - - -
http://nemesis.1337x.org/announce
outdated 13 Jul 2011 - - -
udp://tracker.openbittorrent.com:80/announce
outdated 28 May 2011 - - -
udp://tracker.publicbt.com:80/announce
outdated 28 May 2011 - - -
http://tracker.openbittorrent.com/announce
outdated 28 May 2011 - - -
http://tracker.publicbt.com/announce
deleted 11 Mar 2013 - - -
udp://tracker.ccc.de:80/announce
deleted 17 Jul 2011 - - -
ĀµTorrent compatible trackers list

Locations

name
1337x
ThePirateBay
ExtraTorrent
BTjunkie
BTjunkie
BTjunkie
Fenopy
Torrent hash: d3a0c098de05397f6fd52bf0dbe5b900a2fcfec3

All Comments

audio
6/10
video
6/10
please, leave only comments related to that torrent
or sign-in
0
CrackerFree91 • 18 August 2011, 19:53
torrent downloaded
Show comment
audio: 9video: 8
Really Good Movie but Cam version
0
eaglestone191 • 29 July 2011, 16:44
torrent downloaded
Show comment
audio: 9video: 9
0
Musadiq_Khan93 • 29 July 2011, 12:48
torrent downloaded
Show comment
audio: 5video: 5
waste of time
0
Irfan1906 • 28 July 2011, 01:34 Show comment
audio: 6video: 6
Thanks
0
b4all139 • 26 July 2011, 21:25
torrent downloaded
Show comment
audio: 5video: 6
watchable :)
0
anonymous • 22 July 2011, 15:26 Show comment
audio: 1video: 1
0
anonymous • 22 July 2011, 05:13 Show comment
audio: 7video: 8
0
gfsteel68740 • 17 July 2011, 16:16
torrent downloaded
Show comment
audio: 8video: 8
Thanks uploader! Great work.
0
anonymous • 17 July 2011, 10:49 Show comment
audio: 2video: 8
ive found a gr8 quality kung fu panda 2 torrent awesome quality not caqm or ts dvdrip i duno where the uploader got it from but who gives its good !!!
0
anonymous • 19 July 2011, 04:47 Show comment
where?
0
anonymous • 25 July 2011, 09:01 Show comment
http://torrents.thepiratebay.org/6525047/X-Men_First_Class_2011_R5_LiNE_READNFO_XViD-IMAGiNE.6525047.TPB.torrent
0
anonymous • 21 July 2011, 09:07 Show comment
were
0
anonymous • 25 July 2011, 09:01 Show comment
http://torrents.thepiratebay.org/6525047/X-Men_First_Class_2011_R5_LiNE_READNFO_XViD-IMAGiNE.6525047.TPB.torrent
0
anonymous • 11 August 2011, 13:41 Show comment
madarchot where did u get dat?
0
anonymous • 09 October 2011, 07:50 Show comment
great.. :D
Show More

User Opinions

pumax1467, godslinux975, martinowp565, RoastedBun301, MadHatter334251, Sammo194, Dimples23152, morsi6969127, tbone2177113, ezbuzz8 ... And 192 more
Stalker15.53K, maisiaosiao480, the_kaiser66385, ROCKY1024290, andyvj251, rock2875221, stricnin185, dan1957150, fyilmaz00777, starrocks66 ... And 24 more
Report a bug