Kung Fu Panda 2 2011 TS V2 x264 Feel-Free

seeders: 15
leechers: 1
Added on Jun 14, 2011 in Movies
Torrent verified. Downloaded 8,172 times.

Kung Fu Panda 2 2011 TS V2 x264 Feel-Free (Size: 972.37 MB)
  kung-fu-panda-2-w342.jpg 77.22 KB
  Kung.Fu.Panda.2.2011.TS.V2.x264. 2.74 KB
  Kung.Fu.Panda.2.2011.TS.V2.x264.Feel-Free.mp4 970.96 MB
  Torrent downloaded from extratorrent.com.txt 119 bytes
  vlcsnap-00001.png 273.49 KB
  vlcsnap-00002.png 322.05 KB
  vlcsnap-00003.png 386.8 KB
  vlcsnap-00004.png 373.32 KB

Description


image





Genre:Animation | Action | Adventure

Language:English

IMDb:http://www.imdb.com/title/tt1302011/

Source:Floppy Disk/EP1C Thanks!



Format : MPEG-4

Format profile : Base Media

Codec ID : isom

File size : 971 MiB

Duration : 1h 21mn

Overall bit rate : 1 668 Kbps



Video

ID : 1

Format : AVC

Format/Info : Advanced Video Codec

Format profile : High@L4.1

Format settings, CABAC : Yes

Format settings, ReFrames : 3 frames

Codec ID : avc1

Codec ID/Info : Advanced Video Coding

Duration : 1h 21mn

Bit rate mode : Variable

Bit rate : 1 433 Kbps

Maximum bit rate : 5 588 Kbps

Width : 720 pixels

Height : 320 pixels

Display aspect ratio : 2.25:1

Frame rate mode : Constant

Frame rate : 25.000 fps

Color space : YUV

Chroma subsampling : 4:2:0

Bit depth : 8 bits

Scan type : Progressive

Bits/(Pixel*Frame) : 0.249

Stream size : 838 MiB (86%)

Writing library : x264



Audio

ID : 2

Format : AAC

Format/Info : Advanced Audio Codec

Format version : Version 4

Format profile : LC

Format settings, SBR : No

Codec ID : 40

Duration : 1h 21mn

Bit rate mode : Variable

Bit rate : 224 Kbps

Maximum bit rate : 256 Kbps

Channel(s) : 2 channels

Channel positions : Front: L R

Sampling rate : 44.1 KHz

Stream size : 130 MiB (13%)





Plot:

Po joins forces with a group of new kung-fu masters to take on an old enemy with a deadly new weapon



TRAILER:

[embed=youtube]http://www.youtube.com/watch?v=YdaMGcOyfjM&feature=player_embedded[/embed]



image

image

image

image



Greets:



INK,CRYS,IMAGINE,LKRG,FXG,3Li,FLAWL3SS,TA,iLLUSiON,ViSiON,DTRG SAFCuk009,LU,TheFalcon007,MYSTiC,PrisM,Noir,WBZ,LAP,Rx,Kingdom,SAFCuk009+Fabreezy,HDLiTE,TWiZTED,ExtraTorrentRG.ELEKTRI4KA,MAGNAT,CM8

And to all the other p2p grps past and present









Make sure its a real Feel-Free release @ http://extratorrent.com




Related Torrents

torrent name size files age seed leech

Sharing Widget


Download torrent
972.37 MB
seeders:15
leechers:1
Kung Fu Panda 2 2011 TS V2 x264 Feel-Free

Trackers

tracker name Status checked seeders leechers downloads
udp://tracker.openbittorrent.com:80/announce
outdated 28 Jun 2012 - - -
http://tracker.openbittorrent.com/announce
outdated 28 Jun 2012 - - -
http://exodus.1337x.org/announce
outdated 28 Jun 2012 - - -
http://genesis.1337x.org:1337/announce
outdated 28 Jun 2012 - - -
udp://tracker.publicbt.com:80/announce
outdated 28 Jun 2012 - - -
http://nemesis.1337x.org/announce
outdated 28 Jun 2012 - - -
http://pow7.com/announce
outdated 28 Jun 2012 - - -
http://10.rarbg.com/announce
private 28 Jun 2012 - - -
http://tracker.publicbt.com/announce
deleted 11 Mar 2013 - - -
ĀµTorrent compatible trackers list

Locations

name
1337x
ExtraTorrent
Limetorrents
BTjunkie
Torrent hash: 4fdf38251ec5e0cce818a03c200799ed8b224da1

All Comments

audio
6/10
video
6/10
please, leave only comments related to that torrent
or sign-in
0
badass2.0463 • 10 July 2012, 03:11 Show comment
biggrin
0
WhItE_BeArD11971 • 06 May 2012, 10:55
torrent downloaded
Show comment
audio: 5video: 6
thanks for the sharing uploader
0
WhItE_BeArD11971 • 29 April 2012, 06:25
torrent downloaded
Show comment
audio: 6video: 8
great copy, thanks uploader
1
mn-x4004 • 25 October 2011, 19:44
torrent downloaded
Show comment
audio: 6video: 5
0
anonymous • 15 October 2011, 13:30 Show comment
audio: 8video: 7
Took 2 hours to download, not a perfect copy, but it was very watcahble, there were dark screenings in the movie, 2 shadows of people once in the movie, other than that, the movie was good
0
anonymous • 01 October 2011, 07:27 Show comment
no audio
0
anonymous • 25 September 2011, 17:27 Show comment
these comments always amaze me. How some put 1 or 2 and others put 9 or 10. obviously people have different opinions but come on! Im relatively new to all this so rely quite heavily on comments and sometimes find it hard to work out which is worth doing. And b4 you all rip into me about being a newb as i have seen on other comments page just remember you were all new too once :)
0
anonymous • 09 October 2011, 13:30 Show comment
Haha yeah I generally try to look at about 30 or more comments if most are good I rate it as good. You got remember too alot of people dont even know how to watch half of these and just rate low out of it ;)
0
bznaylor100 • 30 August 2011, 09:12
torrent downloaded
Show comment
no audio
Show More

User Opinions

skit2439, lixzerk1651, matyk643, bthaxor299, alonzo1376275, cwest191, bilibull160, cRockxz158, Ronaldhinio0970, matt1202 ... And 114 more
dinodinodinodino1103, k-tina655, mqsdrana566, depotdevil232, Hadex82, paric82, starrocks66, erackobalma18, Rahul_V7, kdv4 ... And 7 more
Report a bug