Krewella - Alive [Music Video] 720p [Sbyky]

seeders: 5
leechers: 0
Added on Apr 18, 2013 by Sbyky20.9K in Movies > Music videos
Torrent verified. Downloaded 10 times.

Krewella - Alive [Music Video] 720p [Sbyky] (Size: 40.04 MB)
  Krewella - Alive [Music Video] 720p [Sbyky].mp4 40.04 MB

Description

image

General
Complete name : Krewella - Alive [Music Video] 720p [Sbyky].mp4
Format : MPEG-4
Format profile : Base Media / Version 2
Codec ID : mp42
File size : 40.0 MiB
Duration : 3mn 26s
Overall bit rate mode : Variable
Overall bit rate : 1 627 Kbps
Encoded date : UTC 2013-04-08 05:36:04
Tagged date : UTC 2013-04-08 05:36:04

Video
ID : 1
Format : AVC
Format/Info : Advanced Video Codec
Format profile : High@L3.1
Format settings, CABAC : Yes
Format settings, ReFrames : 1 frame
Codec ID : avc1
Codec ID/Info : Advanced Video Coding
Duration : 3mn 26s
Bit rate : 1 432 Kbps
Maximum bit rate : 2 609 Kbps
Width : 1 280 pixels
Height : 720 pixels
Display aspect ratio : 16:9
Frame rate mode : Constant
Frame rate : 23.976 fps
Color space : YUV
Chroma subsampling : 4:2:0
Bit depth : 8 bits
Scan type : Progressive
Bits/(Pixel*Frame) : 0.065
Stream size : 35.3 MiB (88%)
Tagged date : UTC 2013-04-08 05:36:08

Audio
ID : 2
Format : AAC
Format/Info : Advanced Audio Codec
Format profile : LC
Codec ID : 40
Duration : 3mn 26s
Bit rate mode : Variable
Bit rate : 192 Kbps
Maximum bit rate : 203 Kbps
Channel(s) : 2 channels
Channel positions : Front: L R
Sampling rate : 44.1 KHz
Compression mode : Lossy
Stream size : 4.73 MiB (12%)
Title : IsoMedia File Produced by Google, 5-11-2011
Encoded date : UTC 2013-04-08 05:36:06
Tagged date : UTC 2013-04-08 05:36:08

Shared By Sbyky
image
image

Related Torrents

torrent name size files age seed leech

Sharing Widget


Download torrent
40.04 MB
seeders:5
leechers:0
Krewella - Alive [Music Video] 720p [Sbyky]

Trackers

tracker name Status checked seeders leechers downloads
udp://tracker.publicbt.com:80/announce
outdated 21 Jul 2014 - - -
udp://tracker.istole.it:80/announce
outdated 21 Jul 2014 - - -
udp://tracker.openbittorrent.com:80/announce
outdated 21 Jul 2014 - - -
udp://fr33dom.h33t.com:3310/announce
deleted 03 Aug 2013 - - -
udp://fr33domtracker.h33t.com:3310/announce
deleted 03 Aug 2013 - - -
http://fr33dom.h33t.com:3310/announce
deleted 03 Aug 2013 - - -
µTorrent compatible trackers list

Locations

name
KickassTorrents
Torrent hash: 4FDD34359B825976C396E75020CF56DD8C695AC6

All Comments

please, leave only comments related to that torrent
or sign-in

User Opinions

romanimara2078, shoeb732048, MIke171342, zackcruz657
Report a bug