Killers Creed 2013 DVDrip Xvid Ac3-MiLLENiUM

seeders: 157
leechers: 32
Added on May 3, 2013 by Silmarillion254.61K in Movies
Torrent verified. Downloaded 56,989 times.

Summary:
No summary yet
Available in versions: 720pBlu-RayHDRiPDVDRipScreener
Killers Creed 2013 DVDrip Xvid Ac3-MiLLENiUM (Size: 1.4 GB)
  Killers Creed 2013 DVDrip Xvid Ac3-MiLLENiUM.avi 1.38 GB
  sample.avi 23.16 MB
  Torrent downloaded from extratorrent.com.txt 353 bytes

Description

image


http://www.imdb.com/title/tt0438052/


In a futuristic world, Michelle lives everyday battling with DNA Hackers who use their skills to hack into people's bodies and kill them. She is an assassin, battling her past demons and trying to keep her younger and extroverted brother, Jackie, out of trouble. When Jackie gets involved in a petty crime of robbery, he propels himself into the world of DNA Hackers, Shylocks (Loan Sharks) and Gang Fights. Wanting the respect that the world has never given to him only makes it harder for Jackie to peel himself away from the underground trades, against the hopes of his sister, Michelle. Michelle always wanted to leave the city and lead a calm and quiet lifestyle. As emotions and gunfire get into the way, Michelle and Jackie soon find themselves battling between their lives and finding out that in an immoral world, love can still survive. Blood is thicker than water.

Michelle, an assassin to a new breed of killers (DNA Hackers), finds she has greater obstacles in her life... Family.



Director:
Pearry Reginald Teo

Writers:
Pearry Reginald Teo, Keith Collea

Stars:
Bai Ling, Alec Newman, Parry Shen

Genres:
Action | Sci-Fi

Country:
USA

Language:
English




General
Complete name : \Killers Creed 2013 DVDrip Xvid Ac3-MiLLENiUM.avi
Source : DVDR L-S [thanks] :wink:
Format : AVI
Format/Info : Audio Video Interleave
File size : 1.38 GiB
Duration : 1h 31mn
Overall bit rate : 2 156 Kbps
Writing application : VirtualDubMod 1.5.10.2 (build 2540/release)
Writing library : VirtualDubMod build 2540/release

Video
ID : 0
Format : MPEG-4 Visual
Format profile : Advanced Simple@L5
Format settings, BVOP : 2
Format settings, QPel : No
Format settings, GMC : No warppoints
Format settings, Matrix : Default (H.263)
Muxing mode : Packed bitstream
Codec ID : XVID
Codec ID/Hint : XviD
Duration : 1h 31mn
Bit rate : 1 698 Kbps
Width : 720 pixels
Height : 384 pixels
Display aspect ratio : 1.875
Frame rate : 25.000 fps
Color space : YUV
Chroma subsampling : 4:2:0
Bit depth : 8 bits
Scan type : Progressive
Compression mode : Lossy
Bits/(Pixel*Frame) : 0.246
Stream size : 1.09 GiB (79%)
Writing library : XviD 1.2.1 (UTC 2008-12-04)

Audio
ID : 1
Format : AC-3
Format/Info : Audio Coding 3
Mode extension : CM (complete main)
Codec ID : 2000
Duration : 1h 31mn
Bit rate mode : Constant
Bit rate : 448 Kbps
Channel(s) : 6 channels
Channel positions : Front: L C R, Side: L R, LFE
Sampling rate : 48.0 KHz
Bit depth : 16 bits
Compression mode : Lossy
Stream size : 294 MiB (21%)
Alignment : Split accross interleaves
Interleave, duration : 40 ms (1.00 video frame)
Interleave, preload duration : 500 ms



image
image
image
image
image

Related Torrents

torrent name size files age seed leech

Sharing Widget


Download torrent
1.4 GB
seeders:157
leechers:32
Killers Creed 2013 DVDrip Xvid Ac3-MiLLENiUM

Trackers

tracker name Status checked seeders leechers downloads
udp://9.rarbg.com:2710/announce
outdated 02 Sep 2013 - - -
udp://tracker.openbittorrent.com:80/announce
outdated 02 Sep 2013 - - -
udp://9.rarbg.me:2710/announce
outdated 02 Sep 2013 - - -
http://tracker.ex.ua/announce
outdated 02 Sep 2013 - - -
udp://tracker.istole.it:80/announce
outdated 02 Sep 2013 - - -
udp://tracker.publicbt.com:80/announce
outdated 02 Sep 2013 - - -
udp://tracker.seedceo.com:2710/announce
blocked 02 Sep 2013 - - -
udp://www.h33t.com:3310/announce
deleted 02 Sep 2013 - - -
udp://fr33domtracker.h33t.com:3310/announce
deleted 02 Sep 2013 - - -
udp://ipv4.tracker.harry.lu:80/announce
pending 02 Sep 2013 157 31 10
ĀµTorrent compatible trackers list

Locations

name
KickassTorrents
Torrent hash: BCF69D43D3A9708D20B5CD027D16E0C1CCA0D2B8

All Comments

audio
7/10
video
7/10
please, leave only comments related to that torrent
or sign-in
0
PhantasmWizard5784 • 15 September 2013, 22:41
torrent downloaded
Show comment
audio: 9video: 9
Great Job UL, Thanks for your time an your share..keep up the Great Work!!..
0
CantBeStopped7350 • 18 August 2013, 16:45
torrent downloaded
Show comment
audio: 6video: 6
thanks.
0
Redacted3485 • 18 August 2013, 06:22
torrent downloaded
Show comment
audio: 8video: 8
0
jordansantos190 • 13 August 2013, 08:50 Show comment
is it worth my time...?? in other words does she get naked lol..??
0
lamocco1540 • 06 August 2013, 13:23
torrent downloaded
Show comment
audio: 8video: 6
awesome quallity, but amature movie!!
thnx uploader for your effort! ;-))
0
inFamous42755 • 28 July 2013, 18:28
torrent downloaded
Show comment
audio: 7video: 7
0
aw3s0m35437 • 17 July 2013, 16:10
torrent downloaded
Show comment
audio: 7video: 7
tkz uploaderz n seederz ... tongue
0
anonymous • 12 July 2013, 10:47 Show comment
is this The Gene Generation or Killers Creed?????
0
gennie897512 • 07 July 2013, 08:39
torrent downloaded
Show comment
audio: 7video: 8
Show More

User Opinions

pete-je713273, chaseseith2582, xHASTISx1505, Mallyda11313, gerdde708, MR9532, Cameroz350504, adrian78470, timeke387, kbtb305 ... And 212 more
Ruffy523453, kmaccd21335, Tintin143919, hardheaded1780, ghostgovern535, kristi_viper532, zoumpaios505, fipa503, tassu100192, Spudnic192 ... And 10 more
Report a bug