Killers 2010 CAM XviD-SLUGGER

seeders: 1
leechers: 0
Added on Jun 9, 2010 in Movies
Torrent verified. Downloaded 10 times.

Killers 2010 CAM XviD-SLUGGER (Size: 321.88 MB)
  Killers.2010.CAM.XviD-SLUGGER.avi 314.76 MB
  Killers.2010.CAM.XviD-SLUGGER.nfo 3.72 KB
  Killers.2010.CAM.XviD-SLUGGER.sfv 2.86 KB
  Read This Guide Now.txt 502 bytes
  sample.avi 7.11 MB
  www.torrentday.com.txt 502 bytes

Description

.


http://www.torrentday.com : Your Key To The Scene.


Now TvTeam with [No-RAR] Releases.



(((((((((((((= Enjoy No RAR releases =))))))))))))))))))))



...................................NFO:....................................

.Killers.2010.CAM.XviD-SLUGGER


http://www.imdb.com/title/tt1103153/

Plot:

Spencer Aimes (Kutcher) is just your average, undercover, government-hired super-assassin accustomed to a life of exotic European locales, flashy sports cars and even flashier women. But when he meets Jen Kornfeldt (Heigl), a beautiful, fun-loving computer tech recovering from a bad break-up, he finds true love...and happily trades international intrigue for domestic bliss. Three years later, Spencer and Jen are still enjoying a picture-perfect marriage - that is, until the morning after Spencer's 30th birthday. That's when Spencer and Jen learn he's the target of a multi-million dollar hit. Even worse, the hired killers have been stalking the happy couple for years, and could be anyone: friends, neighbors, the grocery store clerk, even that crabby old guy shuffling across the street. Now Spencer and Jen are on the run for their lives. As their suburban paradise turns into a paranoid game of dodge-the-bullet, they must find out who wants Spencer dead and why, all the while trying to save their marriage, manage his in-laws, keep up neighborly appearances ... and just plain survive.

Source : My Own
General
Complete name : Killers.2010.CAM.XviD-SLUGGER.avi
Format : AVI
Format/Info : Audio Video Interleave
File size : 315 MiB
Duration : 1h 30mn
Overall bit rate : 488 Kbps
Writing library : VirtualDub build 32661/release

Video
ID : 0
Format : MPEG-4 Visual
Format profile : AdvancedSimple@L5
Format settings, BVOP : Yes
Format settings, QPel : No
Format settings, GMC : No warppoints
Format settings, Matrix : Default (H.263)
Muxing mode : Packed bitstream
Codec ID : XVID
Codec ID/Hint : XviD
Duration : 1h 30mn
Bit rate : 316 Kbps
Width : 480 pixels
Height : 300 pixels
Display aspect ratio : 1.600
Frame rate : 30.000 fps
Resolution : 24 bits
Colorimetry : 4:2:0
Scan type : Progressive
Bits/(Pixel*Frame) : 0.073
Stream size : 204 MiB (65%)
Writing library : XviD 1.2.1 (UTC 2008-12-04)

Audio
ID : 1
Format : MPEG Audio
Format version : Version 1
Format profile : Layer 3
Codec ID : 55
Codec ID/Hint : MP3
Duration : 1h 30mn
Bit rate mode : Constant
Bit rate : 160 Kbps
Channel(s) : 2 channels
Sampling rate : 44.1 KHz
Resolution : 16 bits
Stream size : 103 MiB (33%)
Alignment : Split accross interleaves
Interleave, duration : 33 ms (1.00 video frame)
Interleave, preload duration : 500 ms
Writing library : LAME3.97

Notes:
Thanks again to TA for all there help in bringing this to you.

Screens:


Enjoy

Related Torrents

torrent name size files age seed leech

Sharing Widget


Download torrent
321.88 MB
seeders:1
leechers:0
Killers 2010 CAM XviD-SLUGGER

Trackers

tracker name Status checked seeders leechers downloads
http://tracker.openbittorrent.com/announce
outdated 06 Jul 2010 - - -
udp://tracker.publicbt.com:80/announce
outdated 09 Jun 2010 - - -
udp://tracker.openbittorrent.com:80/announce
outdated 09 Jun 2010 - - -
http://tracker.publicbt.com/announce
deleted 07 Aug 2011 - - -
µTorrent compatible trackers list

Locations

name
ThePirateBay
Torrent hash: 3b04de9c1b0a18c0b2bd86654208eb9c5159889f

All Comments

audio
0/10
video
0/10
please, leave only comments related to that torrent
or sign-in
0
anonymous • 14 June 2010, 00:21 Show comment
SUCKS!!!!!!!!!!!!!!!!!
0
ejval3112 • 13 June 2010, 00:33
torrent downloaded
Show comment
Could be better

User Opinions

ejval3112
Report a bug